Set as default Homepage|Bookmark
 
 
» » OK Jaanu (2017) 720p - BluRay - x264 - DD5.1-NhaNc3
Advertise

OK Jaanu (2017) 720p - BluRay - x264 - DD5.1-NhaNc3

Author: wroser on 21-10-2020, 17:13

OK Jaanu (2017) 720p - BluRay - x264 - DD5.1-NhaNc3





Format                      : Matroska
Format version              : Version 2
File size                   : 2.74 GiB
Duration                    : 2 h 16 min
Overall bit rate            : 2 879 kb/s
Encoded date                : UTC 2017-11-08 14:53:37
Writing application         : mkvmerge v4.9.1 ('Ich will') built on Jul 11 2011 23:53:15
Writing library             : libebml v1.2.1 + libmatroska v1.1.1

Video
ID                          : 1
Format                      : AVC
Format/Info                 : Advanced Video Codec
Format profile              : 
Format settings, CABAC      : Yes
Format settings, RefFrames  : 8 frames
Codec ID                    : V_MPEG4/ISO/AVC
Duration                    : 2 h 16 min
Bit rate                    : 2 493 kb/s
Width                       : 1 280 pixels
Height                      : 532 pixels
Display aspect ratio        : 2.40:1
Frame rate mode             : Constant
Frame rate                  : 24.000 FPS
Color space                 : YUV
Chroma subsampling          : 4:2:0
Bit depth                   : 8 bits
Scan type                   : Progressive
Bits/(Pixel*Frame)          : 0.153
Stream size                 : 2.32 GiB (85%)
Writing library             : x264 core 148 r2638 7599210
Encoding settings           : cabac=1 / ref=8 / deblock=1:0:0 / analyse=0x3:0x113 / me=umh / subme=9 / psy=1 / psy_rd=1.00:0.00 / mixed_ref=1 / me_range=16 / chroma_me=1 / trellis=1 / 8x8dct=1 / cqm=0 / deadzone=21,11 / fast_pskip=1 / chroma_qp_offset=-2 / threads=8 / lookahead_threads=1 / sliced_threads=0 / nr=0 / decimate=1 / interlaced=0 / bluray_compat=0 / constrained_intra=0 / bframes=5 / b_pyramid=2 / b_adapt=1 / b_bias=0 / direct=1 / weightb=1 / open_gop=0 / weightp=2 / keyint=250 / keyint_min=24 / scenecut=40 / intra_refresh=0 / rc_lookahead=40 / rc=2pass / mbtree=1 / bitrate=2493 / ratetol=1.0 / qcomp=0.60 / qpmin=0 / qpmax=69 / qpstep=4 / cplxblur=20.0 / qblur=0.5 / vbv_maxrate=20000 / vbv_bufsize=15000 / nal_hrd=none / filler=0 / ip_ratio=1.40 / aq=1:1.00
Language                    : English
Default                     : Yes
Forced                      : No
Color range                 : Limited
Color primaries             : BT.709
Transfer characteristics    : BT.709
Matrix coefficients         : BT.709

Audio
ID                          : 2
Format                      : AC-3
Format/Info                 : Audio Coding 3
Format settings, Endianness : Big
Codec ID                    : A_AC3
Duration                    : 2 h 16 min
Bit rate mode               : Constant
Bit rate                    : 384 kb/s
Channel(s)                  : 6 channels
Channel positions           : Front: L C R, Side: L R, LFE
Sampling rate               : 48.0 kHz
Frame rate                  : 31.250 FPS (1536 SPF)
Bit depth                   : 16 bits
Compression mode            : Lossy
Stream size                 : 374 MiB (13%)
Language                    : English
Service kind                : Complete Main
Default                     : Yes
Forced                      : Yes

Text
ID                          : 3
Format                      : UTF-8
Codec ID                    : S_TEXT/UTF8
Codec ID/Info               : UTF-8 Plain Text
Title                       : DDR
Language                    : English
Default                     : Yes
Forced                      : No
Statistics Tags Issue       : mkvmerge v8.5.2 ('Crosses') 32bit 2017-03-08 06:05:25 / mkvmerge v4.9.1 ('Ich will') built on Jul 11 2011 23:53:15 2017-11-08 14:53:37
FromStats_BitRate           : 47
FromStats_Duration          : 02:03:23.542000000
FromStats_FrameCount        : 1502
FromStats_StreamSize        : 43630

Menu
00:00:00.000                : en:00:00:00.000
00:02:46.958                : en:00:02:46.958
00:05:32.500                : en:00:05:32.500
00:10:45.000                : en:00:10:45.000
00:12:48.708                : en:00:12:48.708
00:18:38.833                : en:00:18:38.833
00:20:23.458                : en:00:20:23.458
00:22:49.833                : en:00:22:49.833
00:24:33.417                : en:00:24:33.417
00:27:00.333                : en:00:27:00.333
00:31:06.625                : en:00:31:06.625
00:34:20.417                : en:00:34:20.417
00:36:38.125                : en:00:36:38.125
00:38:45.333                : en:00:38:45.333
00:40:56.417                : en:00:40:56.417
00:42:52.833                : en:00:42:52.833
00:45:25.167                : en:00:45:25.167
00:48:46.375                : en:00:48:46.375
00:52:44.750                : en:00:52:44.750
01:00:01.208                : en:01:00:01.208
01:02:29.208                : en:01:02:29.208
01:05:50.208                : en:01:05:50.208
01:06:50.458                : en:01:06:50.458
01:12:00.625                : en:01:12:00.625
01:15:29.625                : en:01:15:29.625
01:20:06.625                : en:01:20:06.625
01:21:34.000                : en:01:21:34.000
01:23:10.208                : en:01:23:10.208
01:25:01.417                : en:01:25:01.417
01:28:50.000                : en:01:28:50.000
01:30:34.500                : en:01:30:34.500
01:33:55.333                : en:01:33:55.333
01:38:02.083                : en:01:38:02.083
01:39:56.667                : en:01:39:56.667
01:43:46.000                : en:01:43:46.000
01:46:57.000                : en:01:46:57.000
01:48:35.167                : en:01:48:35.167
01:50:00.208                : en:01:50:00.208
01:57:19.208                : en:01:57:19.208
01:58:39.708                : en:01:58:39.708
02:06:14.000                : en:02:06:14.000
02:08:56.000                : en:02:08:56.000


OK Jaanu (2017) 720p - BluRay - x264 - DD5.1-NhaNc3

SINGLE DIRECT FAST LINKS


https://www.heroupload.com/4ffe9896cc0a10b1/Ok.Jaanu.(2017).720p.BluRay.nHD.x264-NhaNc3.mkv



Теги: OK

Dear visitor, you are browsing our website as Guest.
We strongly recommend you to register and login to view hidden contents.

Comments:

Add Comments