Set as default Homepage|Bookmark
 
 
» » Befikre (2016) 720p - BluRay - x264 - DD5.1-NhaNc3
Advertise

Befikre (2016) 720p - BluRay - x264 - DD5.1-NhaNc3

Author: wroser on 16-10-2020, 17:13

Befikre (2016) 720p - BluRay - x264 - DD5.1-NhaNc3





Format                      : Matroska
Format version              : Version 2
File size                   : 2.65 GiB
Duration                    : 2 h 10 min
Overall bit rate            : 2 905 kb/s
Encoded date                : UTC 2017-11-08 07:37:22
Writing application         : mkvmerge v4.9.1 ('Ich will') built on Jul 11 2011 23:53:15
Writing library             : libebml v1.2.1 + libmatroska v1.1.1

Video
ID                          : 1
Format                      : AVC
Format/Info                 : Advanced Video Codec
Format profile              : 
Format settings, CABAC      : Yes
Format settings, RefFrames  : 8 frames
Codec ID                    : V_MPEG4/ISO/AVC
Duration                    : 2 h 10 min
Bit rate                    : 2 510 kb/s
Width                       : 1 280 pixels
Height                      : 544 pixels
Display aspect ratio        : 2.35:1
Frame rate mode             : Constant
Frame rate                  : 24.000 FPS
Color space                 : YUV
Chroma subsampling          : 4:2:0
Bit depth                   : 8 bits
Scan type                   : Progressive
Bits/(Pixel*Frame)          : 0.150
Stream size                 : 2.24 GiB (85%)
Writing library             : x264 core 148 r2638 7599210
Encoding settings           : cabac=1 / ref=8 / deblock=1:0:0 / analyse=0x3:0x113 / me=umh / subme=9 / psy=1 / psy_rd=1.00:0.00 / mixed_ref=1 / me_range=16 / chroma_me=1 / trellis=1 / 8x8dct=1 / cqm=0 / deadzone=21,11 / fast_pskip=1 / chroma_qp_offset=-2 / threads=8 / lookahead_threads=1 / sliced_threads=0 / nr=0 / decimate=1 / interlaced=0 / bluray_compat=0 / constrained_intra=0 / bframes=5 / b_pyramid=2 / b_adapt=1 / b_bias=0 / direct=1 / weightb=1 / open_gop=0 / weightp=2 / keyint=250 / keyint_min=24 / scenecut=40 / intra_refresh=0 / rc_lookahead=40 / rc=2pass / mbtree=1 / bitrate=2510 / ratetol=1.0 / qcomp=0.60 / qpmin=0 / qpmax=69 / qpstep=4 / cplxblur=20.0 / qblur=0.5 / vbv_maxrate=20000 / vbv_bufsize=15000 / nal_hrd=none / filler=0 / ip_ratio=1.40 / aq=1:1.00
Language                    : English
Default                     : Yes
Forced                      : No
Color range                 : Limited
Color primaries             : BT.709
Transfer characteristics    : BT.709
Matrix coefficients         : BT.709

Audio
ID                          : 2
Format                      : AC-3
Format/Info                 : Audio Coding 3
Format settings, Endianness : Big
Codec ID                    : A_AC3
Duration                    : 2 h 10 min
Bit rate mode               : Constant
Bit rate                    : 384 kb/s
Channel(s)                  : 6 channels
Channel positions           : Front: L C R, Side: L R, LFE
Sampling rate               : 48.0 kHz
Frame rate                  : 31.250 FPS (1536 SPF)
Bit depth                   : 16 bits
Compression mode            : Lossy
Stream size                 : 358 MiB (13%)
Language                    : English
Service kind                : Complete Main
Default                     : Yes
Forced                      : Yes

Text #1
ID                          : 3
Format                      : UTF-8
Codec ID                    : S_TEXT/UTF8
Codec ID/Info               : UTF-8 Plain Text
Language                    : English
Default                     : Yes
Forced                      : No
Statistics Tags Issue       : mkvmerge v8.5.2 ('Crosses') 32bit 2017-01-29 16:28:50 / mkvmerge v4.9.1 ('Ich will') built on Jul 11 2011 23:53:15 2017-11-08 07:37:22
FromStats_BitRate           : 47
FromStats_Duration          : 02:07:48.875000000
FromStats_FrameCount        : 1353
FromStats_StreamSize        : 45092

Text #2
ID                          : 4
Format                      : PGS
Muxing mode                 : zlib
Codec ID                    : S_HDMV/PGS
Codec ID/Info               : Picture based subtitle format used on BDs/HD-DVDs
Language                    : Arabic
Default                     : No
Forced                      : No
Statistics Tags Issue       : mkvmerge v8.5.2 ('Crosses') 32bit 2017-01-29 16:28:50 / mkvmerge v4.9.1 ('Ich will') built on Jul 11 2011 23:53:15 2017-11-08 07:37:22
FromStats_BitRate           : 8829
FromStats_Duration          : 02:07:48.875000000
FromStats_FrameCount        : 2716
FromStats_StreamSize        : 8463606

Menu
00:00:00.000                : en:00:00:00.000
00:00:07.958                : en:00:00:07.958
00:03:43.917                : en:00:03:43.917
00:10:04.083                : en:00:10:04.083
00:17:28.083                : en:00:17:28.083
00:21:17.417                : en:00:21:17.417
00:25:27.083                : en:00:25:27.083
00:31:18.125                : en:00:31:18.125
00:35:58.375                : en:00:35:58.375
00:39:49.917                : en:00:39:49.917
00:45:26.417                : en:00:45:26.417
00:52:34.625                : en:00:52:34.625
00:58:31.500                : en:00:58:31.500
01:01:50.000                : en:01:01:50.000
01:08:42.208                : en:01:08:42.208
01:13:04.375                : en:01:13:04.375
01:19:13.167                : en:01:19:13.167
01:26:31.000                : en:01:26:31.000
01:29:07.708                : en:01:29:07.708
01:36:47.042                : en:01:36:47.042
01:42:28.083                : en:01:42:28.083
01:46:50.833                : en:01:46:50.833
01:54:48.083                : en:01:54:48.083
01:56:26.625                : en:01:56:26.625
02:04:12.667                : en:02:04:12.667


Befikre (2016) 720p - BluRay - x264 - DD5.1-NhaNc3

SINGLE DIRECT FAST LINKS


https://www.heroupload.com/ff1ba17b690432d8/Befikre.(2016).720p.BluRay.nHD.x264-NhaNc3.mkv



Теги: Befikre

Dear visitor, you are browsing our website as Guest.
We strongly recommend you to register and login to view hidden contents.

Comments:

Add Comments