Set as default Homepage|Bookmark
 
 
» » Horror Story (2013) 720p - HD-DVDRip - AVC - AAC-Bollywooda2z
Advertise

Horror Story (2013) 720p - HD-DVDRip - AVC - AAC-Bollywooda2z

Author: wroser on 26-09-2020, 18:36

Horror Story (2013) 720p - HD-DVDRip - AVC - AAC-Bollywooda2z




General
Complete name               : E:\Download C 2\2\Horror.Story.720p.HD-DVD.AVC.AAC-BollywoodA2Z.mp4
Format                      : MPEG-4
Format profile              : Base Media
Codec ID                    : isom (isom/avc1/mp42)
File size                   : 795 MiB
Duration                    : 1 h 25 min
Overall bit rate mode       : Variable
Overall bit rate            : 1 295 kb/s
Encoded date                : UTC 2017-10-18 00:46:25
Tagged date                 : UTC 2017-10-18 00:46:25

Video
ID                          : 1
Format                      : AVC
Format/Info                 : Advanced Video Codec
Format profile              : 
Format settings, CABAC      : Yes
Format settings, RefFrames  : 4 frames
Format settings, GOP        : M=3, N=25
Codec ID                    : avc1
Codec ID/Info               : Advanced Video Coding
Duration                    : 1 h 25 min
Bit rate                    : 1 195 kb/s
Maximum bit rate            : 3 292 kb/s
Width                       : 1 280 pixels
Height                      : 720 pixels
Display aspect ratio        : 16:9
Frame rate mode             : Constant
Frame rate                  : 25.000 FPS
Color space                 : YUV
Chroma subsampling          : 4:2:0
Bit depth                   : 8 bits
Scan type                   : Progressive
Bits/(Pixel*Frame)          : 0.052
Stream size                 : 734 MiB (92%)
Writing library             : Zencoder Video Encoding System
Encoded date                : UTC 2017-10-18 00:30:51
Tagged date                 : UTC 2017-10-18 00:46:26
Color range                 : Limited
Color primaries             : BT.709
Transfer characteristics    : BT.709
Matrix coefficients         : BT.709

Audio
ID                          : 2
Format                      : AAC
Format/Info                 : Advanced Audio Codec
Format profile              : LC
Codec ID                    : 40
Duration                    : 1 h 25 min
Bit rate mode               : Variable
Bit rate                    : 96.0 kb/s
Maximum bit rate            : 134 kb/s
Channel(s)                  : 2 channels
Channel positions           : Front: L R
Sampling rate               : 48.0 kHz
Frame rate                  : 46.875 FPS (1024 SPF)
Compression mode            : Lossy
Stream size                 : 58.8 MiB (7%)
Encoded date                : UTC 2017-10-18 00:14:56
Tagged date                 : UTC 2017-10-18 00:46:26


Horror Story (2013) 720p - HD-DVDRip - AVC - AAC-Bollywooda2z
SINGLE DIRECT FAST LINKS


https://www.heroupload.com/a128a59091a39df9/Horror.Story.720p.HD-DVD.AVC.AAC-BollywoodA2Z.mp4



Теги: Horror

Dear visitor, you are browsing our website as Guest.
We strongly recommend you to register and login to view hidden contents.

Comments:

Add Comments