Set as default Homepage|Bookmark
 
 
» » I Am Kalam (2011) 480p - SD-DVDRip - AVC - AAC-Bollywooda2z
Advertise

I Am Kalam (2011) 480p - SD-DVDRip - AVC - AAC-Bollywooda2z

Author: wroser on 19-09-2020, 12:57

I Am Kalam (2011) 480p - SD-DVDRip - AVC - AAC-Bollywooda2z




Format                      : MPEG-4
Format profile              : Base Media
Codec ID                    : isom (isom)
File size                   : 760 MiB
Duration                    : 1 h 26 min
Overall bit rate mode       : Variable
Overall bit rate            : 1 229 kb/s
Encoded date                : UTC 2012-02-27 20:22:02
Tagged date                 : UTC 2012-02-27 20:22:02

Video
ID                          : 1
Format                      : AVC
Format/Info                 : Advanced Video Codec
Format profile              : 
Format settings, CABAC      : Yes
Format settings, RefFrames  : 8 frames
Codec ID                    : avc1
Codec ID/Info               : Advanced Video Coding
Duration                    : 1 h 26 min
Bit rate                    : 1 100 kb/s
Maximum bit rate            : 3 399 kb/s
Width                       : 352 pixels
Height                      : 480 pixels
Display aspect ratio        : 1.85:1
Frame rate mode             : Constant
Frame rate                  : 23.976 (24000/1001) FPS
Color space                 : YUV
Chroma subsampling          : 4:2:0
Bit depth                   : 8 bits
Scan type                   : Progressive
Bits/(Pixel*Frame)          : 0.272
Stream size                 : 680 MiB (89%)
Writing library             : x264 core 120 r2164 da19765
Encoding settings           : cabac=1 / ref=8 / deblock=1:0:0 / analyse=0x3:0x133 / me=umh / subme=9 / psy=1 / psy_rd=1.00:0.15 / mixed_ref=1 / me_range=16 / chroma_me=1 / trellis=2 / 8x8dct=1 / cqm=0 / deadzone=21,11 / fast_pskip=1 / chroma_qp_offset=-3 / threads=18 / sliced_threads=0 / nr=0 / decimate=1 / interlaced=0 / bluray_compat=0 / constrained_intra=0 / bframes=3 / b_pyramid=2 / b_adapt=2 / b_bias=1 / direct=3 / weightb=1 / open_gop=0 / weightp=2 / keyint=240 / keyint_min=23 / scenecut=60 / intra_refresh=0 / rc_lookahead=60 / rc=2pass / mbtree=1 / bitrate=1100 / ratetol=1.0 / qcomp=0.60 / qpmin=0 / qpmax=69 / qpstep=4 / cplxblur=20.0 / qblur=0.5 / ip_ratio=1.40 / aq=1:1.50
Encoded date                : UTC 2012-02-25 00:05:34
Tagged date                 : UTC 2012-02-27 20:22:35

Audio
ID                          : 2
Format                      : AAC
Format/Info                 : Advanced Audio Codec
Format profile              : LC
Codec ID                    : 67
Duration                    : 1 h 26 min
Bit rate mode               : Variable
Bit rate                    : 126 kb/s
Maximum bit rate            : 226 kb/s
Channel(s)                  : 2 channels
Channel positions           : Front: L R
Sampling rate               : 44.1 kHz
Frame rate                  : 43.066 FPS (1024 SPF)
Compression mode            : Lossy
Stream size                 : 77.6 MiB (10%)
Language                    : Hindi
Encoded date                : UTC 2012-02-27 20:22:23
Tagged date                 : UTC 2012-02-27 20:22:35


I Am Kalam (2011) 480p - SD-DVDRip - AVC - AAC-Bollywooda2z
SINGLE DIRECT FAST LINKS


https://www.heroupload.com/d2ad3d68ba2b4077/I.Am.Kalam.mp4



Теги: I

Dear visitor, you are browsing our website as Guest.
We strongly recommend you to register and login to view hidden contents.

Comments:

Add Comments