Set as default Homepage|Bookmark
 
 
» » Guddu (1995) 720p - HD-DVDRip - AVC - AAC-Bollywooda2z
Advertise

Guddu (1995) 720p - HD-DVDRip - AVC - AAC-Bollywooda2z

Author: wroser on 19-08-2020, 17:36

Guddu (1995) 720p - HD-DVDRip - AVC - AAC-Bollywooda2z




General
Complete name               : E:\Download C 2\3\Guddu.720p.HD-DVD.AVC.AAC-BollywoodA2Z.mp4
Format                      : MPEG-4
Format profile              : Base Media
Codec ID                    : isom (isom/avc1/mp42)
File size                   : 1.45 GiB
Duration                    : 2 h 40 min
Overall bit rate mode       : Variable
Overall bit rate            : 1 297 kb/s
Encoded date                : UTC 2017-10-17 20:50:48
Tagged date                 : UTC 2017-10-17 20:50:48

Video
ID                          : 1
Format                      : AVC
Format/Info                 : Advanced Video Codec
Format profile              : 
Format settings, CABAC      : Yes
Format settings, RefFrames  : 4 frames
Codec ID                    : avc1
Codec ID/Info               : Advanced Video Coding
Duration                    : 2 h 40 min
Bit rate                    : 1 197 kb/s
Maximum bit rate            : 3 041 kb/s
Width                       : 1 280 pixels
Height                      : 720 pixels
Display aspect ratio        : 16:9
Frame rate mode             : Constant
Frame rate                  : 25.000 FPS
Color space                 : YUV
Chroma subsampling          : 4:2:0
Bit depth                   : 8 bits
Scan type                   : Progressive
Bits/(Pixel*Frame)          : 0.052
Stream size                 : 1.34 GiB (92%)
Writing library             : Zencoder Video Encoding System
Encoded date                : UTC 2017-10-17 20:25:00
Tagged date                 : UTC 2017-10-17 20:50:51
Color range                 : Limited
Color primaries             : BT.709
Transfer characteristics    : BT.709
Matrix coefficients         : BT.709

Audio
ID                          : 2
Format                      : AAC
Format/Info                 : Advanced Audio Codec
Format profile              : LC
Codec ID                    : 40
Duration                    : 2 h 40 min
Bit rate mode               : Variable
Bit rate                    : 96.0 kb/s
Maximum bit rate            : 106 kb/s
Channel(s)                  : 2 channels
Channel positions           : Front: L R
Sampling rate               : 48.0 kHz
Frame rate                  : 46.875 FPS (1024 SPF)
Compression mode            : Lossy
Stream size                 : 110 MiB (7%)
Encoded date                : UTC 2017-10-17 19:59:13
Tagged date                 : UTC 2017-10-17 20:50:51


Guddu (1995) 720p - HD-DVDRip - AVC - AAC-Bollywooda2z

SINGLE DIRECT FAST LINKS


https://www.heroupload.com/104b891e38885b8d/Guddu.720p.HD-DVD.AVC.AAC-BollywoodA2Z.mp4



Теги: Guddu

Dear visitor, you are browsing our website as Guest.
We strongly recommend you to register and login to view hidden contents.

Comments:

Add Comments