Set as default Homepage|Bookmark
 
 
» » Padman (2018) 1080p - HDRip - x264 - AAC-Exclusive
Advertise

Padman (2018) 1080p - HDRip - x264 - AAC-Exclusive

Author: wroser on 11-05-2018, 11:20
Padman (2018) 1080p - HDRip - x264 - AAC-Exclusive





General
Format                      : Matroska
Format version              : Version 4 / Version 2
File size                   : 2.12 GiB
Duration                    : 2 h 11 min
Overall bit rate            : 2 317 kb/s
Encoded date                : UTC 2018-05-11 03:22:24
Writing application         : mkvmerge v7.1.0 ('Good Love') 32bit built on Jul 27 2014 12:59:18
Writing library             : libebml v1.3.0 + libmatroska v1.4.1

Video
ID                          : 1
Format                      : AVC
Format/Info                 : Advanced Video Codec
Format profile              : [email protected]
Format settings, CABAC      : Yes
Format settings, RefFrames  : 4 frames
Codec ID                    : V_MPEG4/ISO/AVC
Duration                    : 2 h 11 min
Bit rate                    : 2 214 kb/s
Width                       : 1 920 pixels
Height                      : 800 pixels
Display aspect ratio        : 2.40:1
Frame rate mode             : Variable
Frame rate                  : 29.179 FPS
Color space                 : YUV
Chroma subsampling          : 4:2:0
Bit depth                   : 8 bits
Scan type                   : Progressive
Bits/(Pixel*Frame)          : 0.049
Stream size                 : 2.00 GiB (94%)
Writing library             : x264 core 112
Encoding settings           : cabac=1 / ref=2 / deblock=1:0:0 / analyse=0x1:0x111 / me=hex / subme=6 / psy=1 / psy_rd=1.00:0.00 / mixed_ref=0 / me_range=16 / chroma_me=1 / trellis=0 / 8x8dct=0 / cqm=0 / deadzone=21,11 / fast_pskip=1 / chroma_qp_offset=-2 / threads=12 / sliced_threads=0 / nr=0 / decimate=1 / interlaced=0 / constrained_intra=0 / bframes=2 / b_pyramid=2 / b_adapt=1 / b_bias=0 / direct=1 / weightb=0 / open_gop=0 / weightp=2 / keyint=300 / keyint_min=30 / scenecut=40 / intra_refresh=0 / rc_lookahead=40 / rc=abr / mbtree=1 / bitrate=2214 / ratetol=1.0 / qcomp=0.60 / qpmin=3 / qpmax=51 / qpstep=4 / ip_ratio=1.40 / aq=1:1.00
Language                    : Hindi
Default                     : Yes
Forced                      : No
Color range                 : Limited
Color primaries             : BT.709
Transfer characteristics    : BT.709
Matrix coefficients         : BT.709

Audio
ID                          : 2
Format                      : AAC
Format/Info                 : Advanced Audio Codec
Format profile              : LC
Codec ID                    : A_AAC
Duration                    : 2 h 11 min
Bit rate                    : 128 kb/s
Channel(s)                  : 2 channels
Channel positions           : Front: L R
Sampling rate               : 44.1 kHz
Frame rate                  : 43.066 FPS (1024 SPF)
Compression mode            : Lossy
Stream size                 : 120 MiB (6%)
Language                    : Hindi
Default                     : Yes
Forced                      : No



Padman (2018) 1080p - HDRip - x264 - AAC-ExclusivePadman (2018) 1080p - HDRip - x264 - AAC-ExclusivePadman (2018) 1080p - HDRip - x264 - AAC-ExclusivePadman (2018) 1080p - HDRip - x264 - AAC-Exclusive


SINGLE DIRECT FAST LINKS
http://www.heroupload.us/c99ae9c6f1fadb4b/Padman.2018.Hindi.HDRip.1080p.x264.AAC-Exclusive.mkv


http://filefloater.com/1j3M/Padman.2018.Hindi.HDRip.1080p.x264.AAC-Exclusive.mkv

700MB LINKS

http://www.heroupload.us/826814a6a235e8b4/Padman.2018.Hindi.HDRip.1080p.x264.AAC-Exclusive.part1.rar
http://www.heroupload.us/b7e1f028855a5f36/Padman.2018.Hindi.HDRip.1080p.x264.AAC-Exclusive.part2.rar
http://www.heroupload.us/2630d10ffea29485/Padman.2018.Hindi.HDRip.1080p.x264.AAC-Exclusive.part3.rar
http://www.heroupload.us/47551f3e7c90d1c2/Padman.2018.Hindi.HDRip.1080p.x264.AAC-Exclusive.part4.rar



http://filefloater.com/1j3N/Padman.2018.Hindi.HDRip.1080p.x264.AAC-Exclusive.part1.rar
http://filefloater.com/1j3O/Padman.2018.Hindi.HDRip.1080p.x264.AAC-Exclusive.part2.rar
http://filefloater.com/1j3P/Padman.2018.Hindi.HDRip.1080p.x264.AAC-Exclusive.part3.rar
http://filefloater.com/1j3Q/Padman.2018.Hindi.HDRip.1080p.x264.AAC-Exclusive.part4.rar




Теги: Padman

Dear visitor, you are browsing our website as Guest.
We strongly recommend you to register and login to view hidden contents.

Comments:

Add Comments
Reply
  • Group: Guests
  • ICQ:
  • Registration: --
  • Status:
  • 0 Comment
  • 0 Article
^
<a href="http://posttato.ugu.pl/gutejab/microsoft-office-2000-product-key-code
.html#">microsoft office 2000 product key code</a> winx dvd ripper platinum 5.13 mui rus widows xp64 bitelitetorrent runner
<a href="http://consrisuns.ugu.pl/lebuqimo/windows-7-theme-windows-8-dark-styl
e-download-rar.html#">windows 7 theme windows 8 dark style download rar</a> colin mcrae dirt 2 l 2018 ruskus adobe photoshop cs6 patch 2018 serial number keygen 2018