Set as default Homepage|Bookmark
 
 
» » Meri Nimmo (2018) 1080p - WEB-HD - AVC - AAC - ESub-DUS Exclusive
Advertise

Meri Nimmo (2018) 1080p - WEB-HD - AVC - AAC - ESub-DUS Exclusive

Author: wroser on 30-04-2018, 05:59
Meri Nimmo (2018) 1080p - WEB-HD - AVC - AAC - ESub-DUS Exclusive






Format                                   : MPEG-4
Format profile                           : Base Media
Codec ID                                 : isom (isom/iso2/avc1/mp41)
File size                                : 7.55 GiB
Duration                                 : 1 h 30 min
Overall bit rate mode                    : Variable
Overall bit rate                         : 12.0 Mb/s
Writing application                      : Lavf56.40.101

Video
ID                                       : 1
Format                                   : AVC
Format/Info                              : Advanced Video Codec
Format profile                           : [email protected]
Format settings                          : CABAC / 4 Ref Frames
Format settings, CABAC                   : Yes
Format settings, RefFrames               : 4 frames
Format settings, GOP                     : M=4, N=48
Codec ID                                 : avc1
Codec ID/Info                            : Advanced Video Coding
Duration                                 : 1 h 30 min
Bit rate                                 : 12.0 Mb/s
Width                                    : 1 920 pixels
Height                                   : 816 pixels
Display aspect ratio                     : 2.35:1
Frame rate mode                          : Constant
Frame rate                               : 24.000 FPS
Color space                              : YUV
Chroma subsampling                       : 4:2:0
Bit depth                                : 8 bits
Scan type                                : Progressive
Bits/(Pixel*Frame)                       : 0.319
Stream size                              : 7.43 GiB (98%)
Writing library                          : x264 core 138

Audio
ID                                       : 2
Format                                   : AAC
Format/Info                              : Advanced Audio Codec
Format profile                           : LC
Codec ID                                 : mp4a-40-2
Duration                                 : 1 h 30 min
Bit rate mode                            : Variable
Bit rate                                 : 192 kb/s
Maximum bit rate                         : 194 kb/s
Channel(s)                               : 2 channels
Channel positions                        : Front: L R
Sampling rate                            : 48.0 kHz
Frame rate                               : 46.875 FPS (1024 SPF)
Compression mode                         : Lossy
Stream size                              : 124 MiB (2%)
Default                                  : Yes
Alternate group                          : 1


Meri Nimmo (2018) 1080p - WEB-HD - AVC - AAC - ESub-DUS ExclusiveMeri Nimmo (2018) 1080p - WEB-HD - AVC - AAC - ESub-DUS ExclusiveMeri Nimmo (2018) 1080p - WEB-HD - AVC - AAC - ESub-DUS ExclusiveMeri Nimmo (2018) 1080p - WEB-HD - AVC - AAC - ESub-DUS ExclusiveMeri Nimmo (2018) 1080p - WEB-HD - AVC - AAC - ESub-DUS ExclusiveMeri Nimmo (2018) 1080p - WEB-HD - AVC - AAC - ESub-DUS ExclusiveMeri Nimmo (2018) 1080p - WEB-HD - AVC - AAC - ESub-DUS ExclusiveMeri Nimmo (2018) 1080p - WEB-HD - AVC - AAC - ESub-DUS ExclusiveMeri Nimmo (2018) 1080p - WEB-HD - AVC - AAC - ESub-DUS Exclusive


SINGLE DIRECT FAST LINKS

http://www.heroupload.us/021558131fe3e85f/Meri.Nimmo.2018.Hindi.1080p.WEBHD.ESub-DUS.mp4


1GB LINKS

http://www.heroupload.us/51573df74aebedd6/Meri.Nimmo.2018.Hindi.1080p.WEBHD.ESub-DUS.part1.rar
http://www.heroupload.us/8bd833d7f9d7cc73/Meri.Nimmo.2018.Hindi.1080p.WEBHD.ESub-DUS.part2.rar
http://www.heroupload.us/00a62b541ef33e7f/Meri.Nimmo.2018.Hindi.1080p.WEBHD.ESub-DUS.part3.rar
http://www.heroupload.us/ecc1de016a2f6c12/Meri.Nimmo.2018.Hindi.1080p.WEBHD.ESub-DUS.part4.rar
http://www.heroupload.us/92893a9cc17295ed/Meri.Nimmo.2018.Hindi.1080p.WEBHD.ESub-DUS.part5.rar
http://www.heroupload.us/5a6f9d44321d5709/Meri.Nimmo.2018.Hindi.1080p.WEBHD.ESub-DUS.part6.rar
http://www.heroupload.us/9df77dcd63ef2785/Meri.Nimmo.2018.Hindi.1080p.WEBHD.ESub-DUS.part7.rar
http://www.heroupload.us/90942ff31bdc0a31/Meri.Nimmo.2018.Hindi.1080p.WEBHD.ESub-DUS.part8.rar
http://www.heroupload.us/854f98a7c0c17010/Meri.Nimmo.2018.Hindi.1080p.WEBHD.ESub-DUS.srt



http://filefloater.com/SRd/Meri.Nimmo.2018.Hindi.1080p.WEBHD.ESub-DUS.part1.rar
http://filefloater.com/SRe/Meri.Nimmo.2018.Hindi.1080p.WEBHD.ESub-DUS.part2.rar
http://filefloater.com/SRf/Meri.Nimmo.2018.Hindi.1080p.WEBHD.ESub-DUS.part3.rar
http://filefloater.com/SRg/Meri.Nimmo.2018.Hindi.1080p.WEBHD.ESub-DUS.part4.rar
http://filefloater.com/SRh/Meri.Nimmo.2018.Hindi.1080p.WEBHD.ESub-DUS.part5.rar
http://filefloater.com/SRi/Meri.Nimmo.2018.Hindi.1080p.WEBHD.ESub-DUS.part6.rar
http://filefloater.com/SRj/Meri.Nimmo.2018.Hindi.1080p.WEBHD.ESub-DUS.part7.rar
http://filefloater.com/SRk/Meri.Nimmo.2018.Hindi.1080p.WEBHD.ESub-DUS.part8.rar
http://filefloater.com/SRl/Meri.Nimmo.2018.Hindi.1080p.WEBHD.ESub-DUS.srt




Теги: Meri

Dear visitor, you are browsing our website as Guest.
We strongly recommend you to register and login to view hidden contents.

Comments:

Add Comments
Reply
  • Group: Members
  • ICQ: 218428761
  • Registration: 21.07.2018
  • Status: Currently Offline
  • 31 Comment
  • 0 Article
^
Reply
  • Group: Members
  • ICQ: 118471277
  • Registration: 30.09.2018
  • Status: Currently Offline
  • 37 Comment
  • 0 Article
^