Set as default Homepage|Bookmark
 
 
» » Befikre (2016) Hindi - 720p - HDRip - x264 - AC3 - Esubs-TeamTR
Advertise

Befikre (2016) Hindi - 720p - HDRip - x264 - AC3 - Esubs-TeamTR

Author: wroser on 23-01-2017, 22:44
Befikre (2016) Hindi - 720p - HDRip - x264 - AC3 - Esubs-TeamTR





eneral
Format                                   : Matroska
Format version                           : Version 4 / Version 2
File size                                : 2.23 GiB
Duration                                 : 2 h 10 min
Overall bit rate                         : 2 451 kb/s
Encoded date                             : UTC 2017-01-23 14:22:05
Writing application                      : mkvmerge v7.8.0 ('River Man') 64bit built on Mar 27 2015 16:31:37
Writing library                          : libebml v1.3.1 + libmatroska v1.4.2

Video
ID                                       : 1
Format                                   : AVC
Format/Info                              : Advanced Video Codec
Format profile                           : [email protected]
Format settings, CABAC                   : Yes
Format settings, ReFrames                : 4 frames
Codec ID                                 : V_MPEG4/ISO/AVC
Duration                                 : 2 h 10 min
Bit rate                                 : 2 257 kb/s
Width                                    : 1 280 pixels
Height                                   : 720 pixels
Display aspect ratio                     : 16:9
Frame rate mode                          : Constant
Frame rate                               : 23.976 FPS
Color space                              : YUV
Chroma subsampling                       : 4:2:0
Bit depth                                : 8 bits
Scan type                                : Progressive
Bits/(Pixel*Frame)                       : 0.102
Stream size                              : 2.05 GiB (92%)
Writing library                          : x264 core 142 r2479 dd79a61
Encoding settings                        : cabac=1 / ref=3 / deblock=1:0:0 / analyse=0x1:0x111 / me=hex / subme=7 / psy=1 / psy_rd=1.00:0.00 / mixed_ref=1 / me_range=16 / chroma_me=1 / trellis=1 / 8x8dct=0 / cqm=0 / deadzone=21,11 / fast_pskip=1 / chroma_qp_offset=-2 / threads=36 / lookahead_threads=5 / sliced_threads=0 / nr=0 / decimate=1 / interlaced=0 / bluray_compat=0 / constrained_intra=0 / bframes=3 / b_pyramid=2 / b_adapt=1 / b_bias=0 / direct=1 / weightb=1 / open_gop=0 / weightp=2 / keyint=240 / keyint_min=24 / scenecut=40 / intra_refresh=0 / rc_lookahead=40 / rc=crf / mbtree=1 / crf=22.0 / qcomp=0.60 / qpmin=0 / qpmax=69 / qpstep=4 / vbv_maxrate=14000 / vbv_bufsize=14000 / crf_max=0.0 / nal_hrd=none / filler=0 / ip_ratio=1.40 / aq=1:1.00
Default                                  : Yes
Forced                                   : No
Color range                              : Limited
Color primaries                          : BT.709
Transfer characteristics                 : BT.709
Matrix coefficients                      : BT.709

Audio
ID                                       : 2
Format                                   : AAC
Format/Info                              : Advanced Audio Codec
Format profile                           : LC
Codec ID                                 : A_AAC
Duration                                 : 2 h 10 min
Bit rate                                 : 192 kb/s
Channel(s)                               : 2 channels
Channel positions                        : Front: L R
Sampling rate                            : 48.0 kHz
Frame rate                               : 46.875 FPS (1024 spf)
Compression mode                         : Lossy
Delay relative to video                  : -21 ms
Stream size                              : 179 MiB (8%)
Language                                 : Hindi
Default                                  : Yes
Forced                                   : No

Text
ID                                       : 3
Format                                   : UTF-8
Codec ID                                 : S_TEXT/UTF8
Codec ID/Info                            : UTF-8 Plain Text
Duration                                 : 2 h 4 min
Bit rate                                 : 49 b/s
Count of elements                        : 1434
Stream size                              : 44.9 KiB (0%)
Title                                    : TamilRockers.ac
Language                                 : English
Default                                  : Yes
Forced                                   : No



Befikre (2016) Hindi - 720p - HDRip - x264 - AC3 - Esubs-TeamTR
Befikre (2016) Hindi - 720p - HDRip - x264 - AC3 - Esubs-TeamTR
Befikre (2016) Hindi - 720p - HDRip - x264 - AC3 - Esubs-TeamTR
Befikre (2016) Hindi - 720p - HDRip - x264 - AC3 - Esubs-TeamTR


[B]
SINGLE DIRECT FAST LINKS[/B]

http://www.heroupload.com/fdc0bf6261d254c9/Befikre.2016.Hindi.720p.HDRip.AC3.x264.2.2GB.ESUB-Team.TR.mkv


[B]700MB LINKS[/B]



http://www.heroupload.com/b8858b12326134dd/Befikre.2016.Hindi.720p.HDRip.AC3.x264.2.2GB.ESUB-Team.TR.mkv.001
http://www.heroupload.com/15b48267d44045a6/Befikre.2016.Hindi.720p.HDRip.AC3.x264.2.2GB.ESUB-Team.TR.mkv.002
http://www.heroupload.com/cbc6fd68061f8d69/Befikre.2016.Hindi.720p.HDRip.AC3.x264.2.2GB.ESUB-Team.TR.mkv.003
http://www.heroupload.com/2e56668b516d584e/Befikre.2016.Hindi.720p.HDRip.AC3.x264.2.2GB.ESUB-Team.TR.mkv.004





Dear visitor, you are browsing our website as Guest.
We strongly recommend you to register and login to view hidden contents.

Comments:

Add Comments