Set as default Homepage|Bookmark
 
 
» » Yugpurush (1998) 1/3DVDRip - x264 - AC3-XMR
Advertise

Yugpurush (1998) 1/3DVDRip - x264 - AC3-XMR

Author: wroser on 30-03-2018, 13:41
Yugpurush (1998) 1/3DVDRip - x264 - AC3-XMR








Format                      : Matroska
Format version              : Version 2
File size                  : 1.34 GiB
Duration                    : 2 h 30 min
Overall bit rate            : 1 281 kb/s

Video
ID                          : 1
Format                      : AVC
Format/Info                : Advanced Video Codec
Format profile              : [email protected]
Format settings, CABAC      : Yes
Format settings, RefFrames  : 4 frames
Codec ID                    : V_MPEG4/ISO/AVC
Duration                    : 2 h 30 min
Bit rate                    : 1 058 kb/s
Width                      : 720 pixels
Height                      : 336 pixels
Display aspect ratio        : 2.143
Frame rate mode            : Constant
Frame rate                  : 23.976 (24000/1001) FPS
Color space                : YUV
Chroma subsampling          : 4:2:0
Bit depth                  : 8 bits
Scan type                  : Progressive
Bits/(Pixel*Frame)          : 0.182
Stream size                : 1.11 GiB (82%)

Audio
ID                          : 2
Format                      : AC-3
Format/Info                : Audio Coding 3
Mode                        : Dolby Digital
Format settings, Endianness : Big
Codec ID                    : A_AC3
Duration                    : 2 h 30 min
Bit rate mode              : Constant
Bit rate                    : 224 kb/s
Channel(s)                  : 2 channels
Channel positions          : Front: L R
Sampling rate              : 48.0 kHz
Frame rate                  : 31.250 FPS (1536 SPF)
Bit depth                  : 16 bits
Compression mode            : Lossy
Stream size                : 241 MiB (17%)
Service kind                : Complete Main
Default                    : Yes
Forced                      : No







Yugpurush (1998) 1/3DVDRip - x264 - AC3-XMR Yugpurush (1998) 1/3DVDRip - x264 - AC3-XMR Yugpurush (1998) 1/3DVDRip - x264 - AC3-XMR Yugpurush (1998) 1/3DVDRip - x264 - AC3-XMR Yugpurush (1998) 1/3DVDRip - x264 - AC3-XMR Yugpurush (1998) 1/3DVDRip - x264 - AC3-XMR Yugpurush (1998) 1/3DVDRip - x264 - AC3-XMR Yugpurush (1998) 1/3DVDRip - x264 - AC3-XMR Yugpurush (1998) 1/3DVDRip - x264 - AC3-XMR Yugpurush (1998) 1/3DVDRip - x264 - AC3-XMR Yugpurush (1998) 1/3DVDRip - x264 - AC3-XMR Yugpurush (1998) 1/3DVDRip - x264 - AC3-XMR Yugpurush (1998) 1/3DVDRip - x264 - AC3-XMR Yugpurush (1998) 1/3DVDRip - x264 - AC3-XMR Yugpurush (1998) 1/3DVDRip - x264 - AC3-XMR Yugpurush (1998) 1/3DVDRip - x264 - AC3-XMR


SINGLE DIRECT FAST LINKS

http://www.heroupload.us/fd64ebe3ec6b151a/Yugpurush.1998.DVDRIP.X264.AC3-XMR.mkv



http://filefloater.com/57f/Yugpurush.1998.DVDRIP.X264.AC3-XMR.mkv



Теги: Yugpurush

Dear visitor, you are browsing our website as Guest.
We strongly recommend you to register and login to view hidden contents.

Comments:

Add Comments