Set as default Homepage|Bookmark
 
 
» » Secret Superstar (2017) NF - 1080p - WEB-HD - AVC - DD5.1 - Esubs-DUS Exclusive
Advertise

Secret Superstar (2017) NF - 1080p - WEB-HD - AVC - DD5.1 - Esubs-DUS Exclusive

Author: wroser on 23-03-2018, 20:58
Secret Superstar (2017) NF - 1080p - WEB-HD - AVC - DD5.1 - Esubs-DUS Exclusive







Format                                   : Matroska
Format version                           : Version 2
File size                                : 5.33 GiB
Duration                                 : 2 h 29 min
Overall bit rate                         : 5 102 kb/s
Movie name                               : Secret Superstar
Genre                                    : Drama,Family,Music,Musical
Encoded date                             : UTC 2018-03-23 12:28:41
Writing application                      : mkvmerge v21.0.0 ('Tardigrades Will Inherit The Earth') 64-bit
Writing library                          : libebml v1.3.5 + libmatroska v1.4.8
Country                                  : India
Comment                                  : Insia is very passionate about singing but she belongs to a very conservative family. Her father doesn't let her develop her talent but her mother secretly lets her follow her passion for singing. She begins anonymously posting her songs over the internet and gains nation wide fame including people from the music industry. The movie shows her journey to break free and follow her dream of being a singer.                 Written by keith26293
ARTIST                                   : Zaira Wasim,Meher Vij,Raj Arjun,Tirth Sharma,Sajid Kabir,Farrukh Jaffar,Aamir Khan,Manuj Sharma,Nikita Anand,Shaan,Monali Thakur,Mona Ambegaonkar
IMDB ID                                  : tt6108090
IMDB Keywords                            : f rated,teenager,teenage girl,teenage boy,15 year old
ITUNESMEDIATYPE                          : Movie
ITUNESPODCASTDESC                        : Insia is very passionate about singing but she belongs to a very conservative family. Her father doesn't let her develop her talent but her mother secretly lets her follow her passion for singing. She begins anonymously posting her songs over the internet and gains nation wide fame including people from the music industry. The movie shows her journey to break free and follow her dream of being a singer.                 Written by keith26293
Language                                 : Hindi
ReleaseDate                              : 2017-10-18
Year                                     : 2017-10-18

Video
ID                                       : 1
Format                                   : AVC
Format/Info                              : Advanced Video Codec
Format profile                           : [email protected]
Format settings                          : CABAC / 2 Ref Frames
Format settings, CABAC                   : Yes
Format settings, RefFrames               : 2 frames
Format settings, GOP                     : M=1, N=12
Codec ID                                 : V_MPEG4/ISO/AVC
Duration                                 : 2 h 29 min
Bit rate                                 : 4 716 kb/s
Width                                    : 1 920 pixels
Height                                   : 1 080 pixels
Display aspect ratio                     : 16:9
Frame rate mode                          : Constant
Frame rate                               : 24.000 FPS
Color space                              : YUV
Chroma subsampling                       : 4:2:0
Bit depth                                : 8 bits
Scan type                                : Progressive
Bits/(Pixel*Frame)                       : 0.095
Stream size                              : 4.93 GiB (92%)
Default                                  : Yes
Forced                                   : No

Audio
ID                                       : 2
Format                                   : AC-3
Format/Info                              : Audio Coding 3
Codec ID                                 : A_AC3
Duration                                 : 2 h 29 min
Bit rate mode                            : Constant
Bit rate                                 : 384 kb/s
Channel(s)                               : 6 channels
Channel positions                        : Front: L C R, Side: L R, LFE
Sampling rate                            : 48.0 kHz
Frame rate                               : 31.250 FPS (1536 SPF)
Bit depth                                : 16 bits
Compression mode                         : Lossy
Stream size                              : 411 MiB (8%)
Title                                    : DTOne
Language                                 : Hindi
Service kind                             : Complete Main
Default                                  : Yes
Forced                                   : No

Text
ID                                       : 3
Format                                   : UTF-8
Codec ID                                 : S_TEXT/UTF8
Codec ID/Info                            : UTF-8 Plain Text
Duration                                 : 2 h 26 min
Bit rate                                 : 54 b/s
Count of elements                        : 1975
Stream size                              : 58.1 KiB (0%)
Title                                    : DTOne
Language                                 : English
Default                                  : Yes
Forced                                   : No

Secret Superstar (2017) NF - 1080p - WEB-HD - AVC - DD5.1 - Esubs-DUS ExclusiveSecret Superstar (2017) NF - 1080p - WEB-HD - AVC - DD5.1 - Esubs-DUS ExclusiveSecret Superstar (2017) NF - 1080p - WEB-HD - AVC - DD5.1 - Esubs-DUS ExclusiveSecret Superstar (2017) NF - 1080p - WEB-HD - AVC - DD5.1 - Esubs-DUS ExclusiveSecret Superstar (2017) NF - 1080p - WEB-HD - AVC - DD5.1 - Esubs-DUS ExclusiveSecret Superstar (2017) NF - 1080p - WEB-HD - AVC - DD5.1 - Esubs-DUS ExclusiveSecret Superstar (2017) NF - 1080p - WEB-HD - AVC - DD5.1 - Esubs-DUS ExclusiveSecret Superstar (2017) NF - 1080p - WEB-HD - AVC - DD5.1 - Esubs-DUS Exclusive


SINGLE DIRECT FAST LINKS

http://www.heroupload.us/1346e9b17f2fa64b/Secret.Superstar.2017.1080p.WEBHD.DD5.1-DUS.mkv


1GB LINKS

http://www.heroupload.us/7014769c508452ce/Secret.Superstar.2017.1080p.WEBHD.DD5.1-DUS.part1.rar
http://www.heroupload.us/6519bbf042d07334/Secret.Superstar.2017.1080p.WEBHD.DD5.1-DUS.part2.rar
http://www.heroupload.us/47f6c3db8da97fc5/Secret.Superstar.2017.1080p.WEBHD.DD5.1-DUS.part3.rar
http://www.heroupload.us/ce0628566d0c1f57/Secret.Superstar.2017.1080p.WEBHD.DD5.1-DUS.part4.rar
http://www.heroupload.us/20b95b8eb01bba21/Secret.Superstar.2017.1080p.WEBHD.DD5.1-DUS.part5.rar
http://www.heroupload.us/62c4377c291bc4f8/Secret.Superstar.2017.1080p.WEBHD.DD5.1-DUS.part6.rar



http://filefloater.com/514/Secret.Superstar.2017.1080p.WEBHD.DD5.1-DUS.part1.rar
http://filefloater.com/515/Secret.Superstar.2017.1080p.WEBHD.DD5.1-DUS.part2.rar
http://filefloater.com/516/Secret.Superstar.2017.1080p.WEBHD.DD5.1-DUS.part3.rar
http://filefloater.com/517/Secret.Superstar.2017.1080p.WEBHD.DD5.1-DUS.part4.rar
http://filefloater.com/518/Secret.Superstar.2017.1080p.WEBHD.DD5.1-DUS.part5.rar
http://filefloater.com/519/Secret.Superstar.2017.1080p.WEBHD.DD5.1-DUS.part6.rar






Теги: Secret

Dear visitor, you are browsing our website as Guest.
We strongly recommend you to register and login to view hidden contents.

Comments:

Add Comments
Reply
  • Group: Guests
  • ICQ:
  • Registration: --
  • Status:
  • 0 Comment
  • 0 Article
^
<a href="http://innovationeconomy.info">поздравления с днем нового года 2018</a> подарки на новый год 2017 своими руками
поздравление снегурочки новым годом сплав подарки на новый год