Set as default Homepage|Bookmark
 
 
» » Monsoon Shootout (2017) 720p - WEB-HD - AVC - AAC - DDR Exclusive
Advertise

Monsoon Shootout (2017) 720p - WEB-HD - AVC - AAC - DDR Exclusive

Author: wroser on 27-02-2018, 06:23
Monsoon Shootout (2017) 720p - WEB-HD - AVC - AAC - DDR Exclusive





General
Format                      : MPEG-4
Format profile              : Base Media
Codec ID                    : isom (isom/iso2/avc1/mp41)
File size                   : 1.25 GiB
Duration                    : 1 h 26 min
Overall bit rate mode       : Constant
Overall bit rate            : 2 066 kb/s
Writing application         : Lavf57.75.100

Video
ID                          : 1
Format                      : AVC
Format/Info                 : Advanced Video Codec
Format profile              : [email protected]
Format settings, CABAC      : Yes
Format settings, RefFrames  : 1 frame
Format settings, GOP        : M=1, N=25
Codec ID                    : avc1
Codec ID/Info               : Advanced Video Coding
Duration                    : 1 h 26 min
Bit rate mode               : Constant
Bit rate                    : 2 000 kb/s
Width                       : 1 280 pixels
Height                      : 720 pixels
Display aspect ratio        : 16:9
Frame rate mode             : Constant
Frame rate                  : 25.000 FPS
Color space                 : YUV
Chroma subsampling          : 4:2:0
Bit depth                   : 8 bits
Scan type                   : Progressive
Bits/(Pixel*Frame)          : 0.087
Stream size                 : 1.21 GiB (97%)

Audio
ID                          : 2
Format                      : AAC
Format/Info                 : Advanced Audio Codec
Format profile              : LC
Codec ID                    : 40
Duration                    : 1 h 26 min
Bit rate mode               : Constant
Bit rate                    : 61.4 kb/s
Channel(s)                  : 2 channels
Channel positions           : Front: L R
Sampling rate               : 48.0 kHz
Frame rate                  : 46.875 FPS (1024 SPF)
Compression mode            : Lossy
Stream size                 : 37.9 MiB (3%)
Default                     : Yes
Alternate group             : 1


Monsoon Shootout (2017) 720p - WEB-HD - AVC - AAC - DDR Exclusive
Monsoon Shootout (2017) 720p - WEB-HD - AVC - AAC - DDR Exclusive
Monsoon Shootout (2017) 720p - WEB-HD - AVC - AAC - DDR Exclusive
Monsoon Shootout (2017) 720p - WEB-HD - AVC - AAC - DDR Exclusive
Monsoon Shootout (2017) 720p - WEB-HD - AVC - AAC - DDR Exclusive
Monsoon Shootout (2017) 720p - WEB-HD - AVC - AAC - DDR Exclusive
Monsoon Shootout (2017) 720p - WEB-HD - AVC - AAC - DDR Exclusive
Monsoon Shootout (2017) 720p - WEB-HD - AVC - AAC - DDR Exclusive

SINGLE DIRECT FAST LINKS

https://www.heroupload.com/08446bd86e45a3ea/Monsoon.Shootout.2018.720p.UntoucheD.WEB_HD.AVC.AAC-DDR.Exclusive.mp4



http://filefloater.com/7d8/Monsoon.Shootout.2018.720p.UntoucheD.WEB_HD.AVC.AAC-DDR.Exclusive.mp4



Теги: Monsoon

Dear visitor, you are browsing our website as Guest.
We strongly recommend you to register and login to view hidden contents.

Comments:

Add Comments