Set as default Homepage|Bookmark
 
 
» » All Azhagu Raja (2018) Hindi - 720p - WEB-HD - AVC - AAC-GM Exclusive
Advertise

All Azhagu Raja (2018) Hindi - 720p - WEB-HD - AVC - AAC-GM Exclusive

Author: wroser on 26-02-2018, 23:23
All Azhagu Raja (2018) Hindi - 720p - WEB-HD - AVC - AAC-GM Exclusive





General
Format                      : MPEG-4
Format profile              : Base Media / Version 2
Codec ID                    : mp42 (isom/mp42)
File size                   : 1.04 GiB
Duration                    : 2 h 18 min
Overall bit rate mode       : Variable
Overall bit rate            : 1 070 kb/s
Encoded date                : UTC 2018-02-26 22:19:16
Tagged date                 : UTC 2018-02-26 22:19:16
gsst                        : 0
gstd                        : 8310189

Video
ID                          : 1
Format                      : AVC
Format/Info                 : Advanced Video Codec
Format profile              : [email protected]
Format settings, CABAC      : Yes
Format settings, RefFrames  : 3 frames
Codec ID                    : avc1
Codec ID/Info               : Advanced Video Coding
Duration                    : 2 h 18 min
Bit rate                    : 941 kb/s
Width                       : 1 280 pixels
Height                      : 720 pixels
Display aspect ratio        : 16:9
Frame rate mode             : Constant
Frame rate                  : 25.000 FPS
Color space                 : YUV
Chroma subsampling          : 4:2:0
Bit depth                   : 8 bits
Scan type                   : Progressive
Bits/(Pixel*Frame)          : 0.041
Stream size                 : 932 MiB (88%)
Title                       : ISO Media file produced by Google Inc. Created on: 02/26/2018.
Encoded date                : UTC 2018-02-26 22:19:16
Tagged date                 : UTC 2018-02-26 22:19:16
Color range                 : Limited
Color primaries             : BT.709
Transfer characteristics    : BT.709
Matrix coefficients         : BT.709

Audio
ID                          : 2
Format                      : AAC
Format/Info                 : Advanced Audio Codec
Format profile              : LC
Codec ID                    : 40
Duration                    : 2 h 18 min
Bit rate mode               : Variable
Bit rate                    : 126 kb/s
Channel(s)                  : 2 channels
Channel positions           : Front: L R
Sampling rate               : 44.1 kHz
Frame rate                  : 43.066 FPS (1024 SPF)
Compression mode            : Lossy
Stream size                 : 124 MiB (12%)
Title                       : ISO Media file produced by Google Inc. Created on: 02/26/2018.
Encoded date                : UTC 2018-02-26 22:19:16
Tagged date                 : UTC 2018-02-26 22:19:16


All Azhagu Raja (2018) Hindi - 720p - WEB-HD - AVC - AAC-GM Exclusive

SINGLE DIRECT FAST LINKS

https://www.heroupload.com/085bf06011822827/Hero.No.Zero.2-All.In.All.Azhagu.Raja.2018.Hindi.720p.WEB-HD.AVC.AAC-GM.MP4



http://filefloater.com/7d6/Hero.No.Zero.2-All.In.All.Azhagu.Raja.2018.Hindi.720p.WEB-HD.AVC.AAC-GM.MP4



Теги: All

Dear visitor, you are browsing our website as Guest.
We strongly recommend you to register and login to view hidden contents.

Comments:

Add Comments