Set as default Homepage|Bookmark
 
 
» » Padman (2018) 720p - pDVDRip - x264 - MP3 - M2Tv
Advertise

Padman (2018) 720p - pDVDRip - x264 - MP3 - M2Tv

Author: wroser on 17-02-2018, 00:35
Padman (2018) 720p - pDVDRip - x264 - MP3 - M2Tv






Ratings: 8.6/10

Genere: Biography, Comedy, Drama

General
Format : Matroska
File size : 969 MiB
Duration : 2 h 12 min
Overall bit rate : 1 025 kb/s

Video
ID : 1
Format : AVC
Codec ID : V_MPEG4/ISO/AVC
Duration : 2 h 12 min
Bit rate : 911 kb/s
Width : 1 280 pixels
Height : 544 pixels
Display aspect ratio : 2.35:1
Frame rate mode : Constant
Frame rate : 25.000 FPS
Stream size : 862 MiB (89%)
Title : Mafiaking
Language : Hindi
Default : Yes
Forced : No

Audio
ID : 2
Format : MPEG Audio
Codec ID/Hint : MP3
Duration : 2 h 12 min
Bit rate : 112 kb/s
Channel(s) : 2 channels
Stream size : 106 MiB (11%)
Title : Mafiaking
Language : Hindi
Default : Yes
Forced : No


Padman (2018) 720p - pDVDRip - x264 - MP3 - M2TvPadman (2018) 720p - pDVDRip - x264 - MP3 - M2TvPadman (2018) 720p - pDVDRip - x264 - MP3 - M2TvPadman (2018) 720p - pDVDRip - x264 - MP3 - M2TvPadman (2018) 720p - pDVDRip - x264 - MP3 - M2TvPadman (2018) 720p - pDVDRip - x264 - MP3 - M2TvPadman (2018) 720p - pDVDRip - x264 - MP3 - M2TvPadman (2018) 720p - pDVDRip - x264 - MP3 - M2Tv


SINGLE DIRECT FAST LINKS

https://www.heroupload.com/b1651f64d4608649/Padman.2018.720p.PreDVD-Rip.x264.MP3.Mafiaking-M2Tv.mkv



http://filefloater.com/77X/Padman.2018.720p.PreDVD-Rip.x264.MP3.Mafiaking-M2Tv.mkv



Теги: Padman

Dear visitor, you are browsing our website as Guest.
We strongly recommend you to register and login to view hidden contents.

Comments:

Add Comments