Set as default Homepage|Bookmark
 
 
» » OK Jaanu (2017) 1GB - DVDSCR - x264 - AAC - [DDR-Exclusive]
Advertise

OK Jaanu (2017) 1GB - DVDSCR - x264 - AAC - [DDR-Exclusive]

Author: wroser on 12-02-2017, 00:46
OK Jaanu (2017) 1GB - DVDSCR - x264 - AAC - [DDR-Exclusive]





Format : Matroska
File size : 1.06 GiB
Duration : 2 h 15 min
Overall bit rate : 1 116 kb/s

Video
Format : AVC
Format profile : [email protected]
Bit rate : 929 kb/s
Width : 720 pixels
Height : 304 pixels
Display aspect ratio : 2.35:1
Frame rate : 23.976 (24000/1001) FPS
Bit depth : 8 bits
Scan type : Progressive
Stream size : 896 MiB (83%)
Color primaries : BT.601 NTSC
Transfer characteristics : BT.470 System B, BT.470 System G
Matrix coefficients : BT.601

Audio
Format : AAC
Format profile : LC
Bit rate : 192 kb/s
Channel(s) : 2 channels
Stream size : 187 MiB (17%)
Language : Hindi




OK Jaanu (2017) 1GB - DVDSCR - x264 - AAC - [DDR-Exclusive]
OK Jaanu (2017) 1GB - DVDSCR - x264 - AAC - [DDR-Exclusive]
OK Jaanu (2017) 1GB - DVDSCR - x264 - AAC - [DDR-Exclusive]
OK Jaanu (2017) 1GB - DVDSCR - x264 - AAC - [DDR-Exclusive]
OK Jaanu (2017) 1GB - DVDSCR - x264 - AAC - [DDR-Exclusive]
OK Jaanu (2017) 1GB - DVDSCR - x264 - AAC - [DDR-Exclusive]
OK Jaanu (2017) 1GB - DVDSCR - x264 - AAC - [DDR-Exclusive]
OK Jaanu (2017) 1GB - DVDSCR - x264 - AAC - [DDR-Exclusive]



[B]SINGLE DIRECT FAST LINKS[/B]


http://www.heroupload.com/ec0065e25b5059fa/OK.Jaanu.2017.1GB.x264.DVDSCR.AAC-DDR.mkv




Dear visitor, you are browsing our website as Guest.
We strongly recommend you to register and login to view hidden contents.

Comments:

Add Comments
Reply
  • Group: Guests
  • ICQ:
  • Registration: --
  • Status:
  • 0 Comment
  • 0 Article
^
I try to watch movies at my home but I did not get quality movies when the movie released. But then keithekiss start giving me good and quality movies so I watch it.