Set as default Homepage|Bookmark
 
 
» » Jolly LLB 2 (2017) Hindi - 2CD - Pre-DvDRip - x264 - AC3-MAXPRO
Advertise

Jolly LLB 2 (2017) Hindi - 2CD - Pre-DvDRip - x264 - AC3-MAXPRO

Author: wroser on 11-02-2017, 12:07

Jolly LLB 2 (2017) Hindi - 2CD - Pre-DvDRip - x264 - AC3-MAXPRO





Source                     :Ictv
Format                      : Matroska
Format version              : Version 2
File size                   : 1.40 GiB
Duration                    : 2 h 12 min
Overall bit rate            : 1 514 kb/s
Encoded date                : UTC 2017-02-10 18:38:43
Writing application         : mkvmerge v8.5.2 ('Crosses') 32bit
Writing library             : libebml v1.3.3 + libmatroska v1.4.4

Video
ID                          : 1
Format                      : AVC
Format/Info                 : Advanced Video Codec
Format profile              : [email protected]
Format settings, CABAC      : Yes
Format settings, ReFrames   : 4 frames
Codec ID                    : V_MPEG4/ISO/AVC
Duration                    : 2 h 12 min
Bit rate                    : 1 353 kb/s
Width                       : 720 pixels
Height                      : 304 pixels
Display aspect ratio        : 2.35:1
Frame rate mode             : Constant
Frame rate                  : 15.000 FPS
Color space                 : YUV
Chroma subsampling          : 4:2:0
Bit depth                   : 8 bits
Scan type                   : Progressive
Bits/(Pixel*Frame)          : 0.412
Stream size                 : 1.25 GiB (89%)
Writing library             : x264 core 148 r2638 7599210

Audio
ID                          : 2
Format                      : AC-3
Format/Info                 : Audio Coding 3
Mode extension              : CM (complete main)
Format settings, Endianness : Big
Codec ID                    : A_AC3
Duration                    : 2 h 12 min
Bit rate mode               : Constant
Bit rate                    : 160 kb/s
Channel(s)                  : 2 channels
Channel positions           : Front: L R
Sampling rate               : 48.0 kHz
Frame rate                  : 31.250 FPS (1536 spf)
Bit depth                   : 16 bits
Compression mode            : Lossy
Stream size                 : 151 MiB (11%)
Language                    : English
Default                     : Yes
Forced                      : No


Jolly LLB 2 (2017) Hindi - 2CD - Pre-DvDRip - x264 - AC3-MAXPRO
Jolly LLB 2 (2017) Hindi - 2CD - Pre-DvDRip - x264 - AC3-MAXPRO
Jolly LLB 2 (2017) Hindi - 2CD - Pre-DvDRip - x264 - AC3-MAXPRO
Jolly LLB 2 (2017) Hindi - 2CD - Pre-DvDRip - x264 - AC3-MAXPRO
Jolly LLB 2 (2017) Hindi - 2CD - Pre-DvDRip - x264 - AC3-MAXPRO
Jolly LLB 2 (2017) Hindi - 2CD - Pre-DvDRip - x264 - AC3-MAXPRO
Jolly LLB 2 (2017) Hindi - 2CD - Pre-DvDRip - x264 - AC3-MAXPRO
Jolly LLB 2 (2017) Hindi - 2CD - Pre-DvDRip - x264 - AC3-MAXPRO
Jolly LLB 2 (2017) Hindi - 2CD - Pre-DvDRip - x264 - AC3-MAXPRO


[B]SINGLE DIRECT FAST LINKS[/B]


http://www.heroupload.com/0c6c073a6f9be78a/Jolly.LLB.2.2017.Hindi.2CD.Pre-DvDRip.x264.AC3-MAXPRO.mkv



Dear visitor, you are browsing our website as Guest.
We strongly recommend you to register and login to view hidden contents.

Comments:

Add Comments