Set as default Homepage|Bookmark
 
 
» » Uchathula Shiva (2016) 720p UNCUT HDRip x264 ESubs [Dual Audio] [Hindi+Tamil] BHD
Advertise

Uchathula Shiva (2016) 720p UNCUT HDRip x264 ESubs [Dual Audio] [Hindi+Tamil] BHD

Author: wroser on 11-09-2019, 14:49
Uchathula Shiva (2016) 720p UNCUT HDRip x264 ESubs [Dual Audio] [Hindi+Tamil] BHD




Video
ID : 1
Format : AVC
Format/Info : Advanced Video Codec
Format profile : [email protected]
Format settings : CABAC / 4 Ref Frames
Format settings, CABAC : Yes
Format settings, Reference frames : 4 frames
Codec ID : V_MPEG4/ISO/AVC
Duration : 2 h 4 min
Width : 1 280 pixels
Height : 544 pixels
Display aspect ratio : 2.35:1
Frame rate mode : Constant
Frame rate : 24.000 FPS
Color space : YUV
Chroma subsampling : 4:2:0
Bit depth : 8 bits
Scan type : Progressive
Bits/(Pixel*Frame) : 0.078
Stream size : 1.12 GiB (80%)
Writing library : x264 core
Color range : Limited
Color primaries : BT.709
Transfer characteristics : BT.709
Matrix coefficients : BT.709

Audio #1
ID : 2
Format : AC-3
Format/Info : Audio Coding 3
Commercial name : Dolby Digital
Codec ID : A_AC3
Duration : 2 h 4 min
Bit rate mode : Constant
Bit rate : 192 kb/s
Channel(s) : 2 channels
Channel layout : L R
Sampling rate : 48.0 kHz
Frame rate : 31.250 FPS (1536 SPF)
Bit depth : 16 bits
Compression mode : Lossy
Delay relative to video : -95 ms
Stream size : 171 MiB (12%)
Language : Hindi
Service kind : Complete Main
Default : Yes
Forced : Yes

Audio #2
ID : 3
Format : AAC LC
Format/Info : Advanced Audio Codec Low Complexity
Codec ID : A_AAC-2
Duration : 2 h 4 min
Bit rate : 128 kb/s
Channel(s) : 2 channels
Channel layout : L R
Sampling rate : 48.0 kHz
Frame rate : 46.875 FPS (1024 SPF)
Compression mode : Lossy
Delay relative to video : -95 ms
Stream size : 114 MiB (8%)
Language : Tamil
Default : No
Forced : No

Text
ID : 4
Format : UTF-8
Codec ID : S_TEXT/UTF8
Codec ID/Info : UTF-8 Plain Text
Duration : 2 h 1 min
Bit rate : 66 b/s
Count of elements : 1676
Stream size : 59.6 KiB (0%)
Language : English
Default : Yes
Forced : No 


Uchathula Shiva (2016) 720p UNCUT HDRip x264 ESubs [Dual Audio] [Hindi+Tamil] BHD
Uchathula Shiva (2016) 720p UNCUT HDRip x264 ESubs [Dual Audio] [Hindi+Tamil] BHD
Uchathula Shiva (2016) 720p UNCUT HDRip x264 ESubs [Dual Audio] [Hindi+Tamil] BHD
Uchathula Shiva (2016) 720p UNCUT HDRip x264 ESubs [Dual Audio] [Hindi+Tamil] BHD
Uchathula Shiva (2016) 720p UNCUT HDRip x264 ESubs [Dual Audio] [Hindi+Tamil] BHD
Uchathula Shiva (2016) 720p UNCUT HDRip x264 ESubs [Dual Audio] [Hindi+Tamil] BHD
Uchathula Shiva (2016) 720p UNCUT HDRip x264 ESubs [Dual Audio] [Hindi+Tamil] BHD
Uchathula Shiva (2016) 720p UNCUT HDRip x264 ESubs [Dual Audio] [Hindi+Tamil] BHD
Uchathula Shiva (2016) 720p UNCUT HDRip x264 ESubs [Dual Audio] [Hindi+Tamil] BHD
Uchathula Shiva (2016) 720p UNCUT HDRip x264 ESubs [Dual Audio] [Hindi+Tamil] BHD

SINGLE DIRECT FAST LINKS


https://www.heroupload.com/d1b33742c3aa1c9e/Uchathula.Shiva.2016.720p.UNCUT.HDRip.x264.ESubs.Hindi.DD2.0+Tamil.DD2.0-BHD.mkv



Теги: Uchathula

Dear visitor, you are browsing our website as Guest.
We strongly recommend you to register and login to view hidden contents.

Comments:

Add Comments