Set as default Homepage|Bookmark
 
 
» » Diya (2018) UNCUT - 720p - HDRip - x264 - Esubs [Dual Audio][Hindi+Tamil] - DM
Advertise

Diya (2018) UNCUT - 720p - HDRip - x264 - Esubs [Dual Audio][Hindi+Tamil] - DM

Author: wroser on 14-08-2019, 23:25
Diya (2018) UNCUT - 720p - HDRip - x264 - Esubs [Dual Audio][Hindi+Tamil] - DM





General
Format : Matroska
Format version : Version 4
File size : 1.20 GiB
Duration : 1 h 39 min
Overall bit rate : 1 722 kb/s

Video
ID : 1
Format : AVC
Format/Info : Advanced Video Codec
Format profile : [email protected]
Format settings : CABAC / 4 Ref Frames
Format settings, CABAC : Yes
Format settings, ReFrames : 4 frames
Codec ID : V_MPEG4/ISO/AVC
Duration : 1 h 39 min
Bit rate : 1 400 kb/s
Width : 1 280 pixels
Height : 540 pixels
Display aspect ratio : 2.40:1
Frame rate mode : Constant
Frame rate : 24.000 FPS
Color space : YUV
Chroma subsampling : 4:2:0
Bit depth : 8 bits
Scan type : Progressive
Bits/(Pixel*Frame) : 0.084
Default : Yes
Forced : No

Audio #1
ID : 2
Format : AC-3
Format/Info : Audio Coding 3
Commercial name : Dolby Digital
Codec ID : A_AC3
Duration : 1 h 39 min
Bit rate mode : Constant
Bit rate : 192 kb/s
Channel(s) : 2 channels
Channel layout : L R
Sampling rate : 48.0 kHz
Frame rate : 31.250 FPS (1536 SPF)
Bit depth : 16 bits
Compression mode : Lossy
Delay relative to video : -23 ms
Stream size : 137 MiB (11%)
Title : Hindi DTH DD 2.0
Language : Hindi
Service kind : Complete Main
Default : Yes
Forced : No

Audio #2
ID : 3
Format : MPEG Audio
Format version : Version 1
Format profile : Layer 3
Format settings : Joint stereo / MS Stereo
Codec ID : A_MPEG/L3
Codec ID/Hint : MP3
Duration : 1 h 39 min
Bit rate mode : Constant
Bit rate : 128 kb/s
Channel(s) : 2 channels
Sampling rate : 48.0 kHz
Compression mode : Lossy
Delay relative to video : -23 ms
Stream size : 91.3 MiB (7%)
Title : Stereo
Writing library : LAME3.98
Language : English
Default : No
Forced : No

Text
ID : 4
Format : ASS
Codec ID : S_TEXT/ASS
Codec ID/Info : Advanced Sub Station Alpha
Compression mode : Lossless
Default : No
Forced : No 




Diya (2018) UNCUT - 720p - HDRip - x264 - Esubs [Dual Audio][Hindi+Tamil] - DM
Diya (2018) UNCUT - 720p - HDRip - x264 - Esubs [Dual Audio][Hindi+Tamil] - DM
Diya (2018) UNCUT - 720p - HDRip - x264 - Esubs [Dual Audio][Hindi+Tamil] - DM
Diya (2018) UNCUT - 720p - HDRip - x264 - Esubs [Dual Audio][Hindi+Tamil] - DM
Diya (2018) UNCUT - 720p - HDRip - x264 - Esubs [Dual Audio][Hindi+Tamil] - DM
Diya (2018) UNCUT - 720p - HDRip - x264 - Esubs [Dual Audio][Hindi+Tamil] - DM
Diya (2018) UNCUT - 720p - HDRip - x264 - Esubs [Dual Audio][Hindi+Tamil] - DM
Diya (2018) UNCUT - 720p - HDRip - x264 - Esubs [Dual Audio][Hindi+Tamil] - DM
Diya (2018) UNCUT - 720p - HDRip - x264 - Esubs [Dual Audio][Hindi+Tamil] - DM


SINGLE DIRECT FAST LINKS

https://www.heroupload.com/ae8d7308a59da3f9/Diya.2018.UNCUT.720p.WEB-HDRip.x264.Esubs.Dual.Audio-DM.mkv



https://www.filefloater.com/Xll/Diya.2018.UNCUT.720p.WEB-HDRip.x264.Esubs.Dual.Audio-DM.mkv


Buy Premium From My Links & Support Me

Теги: Diya

Dear visitor, you are browsing our website as Guest.
We strongly recommend you to register and login to view hidden contents.

Comments:

Add Comments