Set as default Homepage|Bookmark
 
 
» » Darling (2007) 1080p - WEB-DL - H264 - DD5.1-TeamDUS
Advertise

Darling (2007) 1080p - WEB-DL - H264 - DD5.1-TeamDUS

Author: wroser on 31-07-2019, 20:21
Darling (2007) 1080p - WEB-DL - H264 - DD5.1-TeamDUS





General
Format : Matroska
Format version : Version 4
File size : 5.42 GiB
Duration : 2 h 6 min
Overall bit rate : 6 115 kb/s
Encoded date : UTC 2019-07-26 20:00:06
Writing application : mkvmerge v30.1.0 ('Forever And More') 64-bit
Writing library : libebml v1.3.6 + libmatroska v1.4.9

Video
ID : 1
Format : AVC
Format/Info : Advanced Video Codec
Format profile : [email protected]
Format settings : CABAC / 4 Ref Frames
Format settings, CABAC : Yes
Format settings, Reference frames : 4 frames
Codec ID : V_MPEG4/ISO/AVC
Duration : 2 h 6 min
Bit rate : 5 473 kb/s
Width : 1 920 pixels
Height : 816 pixels
Display aspect ratio : 2.35:1
Frame rate mode : Constant
Frame rate : 25.000 FPS
Color space : YUV
Chroma subsampling : 4:2:0
Bit depth : 8 bits
Scan type : Progressive
Bits/(Pixel*Frame) : 0.140
Stream size : 4.85 GiB (89%)
Default : Yes
Forced : No
Color range : Limited
Color primaries : BT.709
Transfer characteristics : BT.709
Matrix coefficients : BT.709

Audio
ID : 2
Format : E-AC-3
Format/Info : Enhanced AC-3
Commercial name : Dolby Digital Plus
Codec ID : A_EAC3
Duration : 2 h 6 min
Bit rate mode : Constant
Bit rate : 640 kb/s
Channel(s) : 6 channels
Channel layout : L R C LFE Ls Rs
Sampling rate : 48.0 kHz
Frame rate : 31.250 FPS (1536 SPF)
Compression mode : Lossy
Stream size : 581 MiB (10%)
Service kind : Complete Main
Default : Yes
Forced : No

Text #1
ID : 3
Format : UTF-8
Codec ID : S_TEXT/UTF8
Codec ID/Info : UTF-8 Plain Text
Duration : 2 h 5 min
Bit rate : 44 b/s
Count of elements : 1394
Stream size : 41.3 KiB (0%)
Title : SDH
Language : Telugu
Default : No
Forced : No

Text #2
ID : 4
Format : UTF-8
Codec ID : S_TEXT/UTF8
Codec ID/Info : UTF-8 Plain Text
Duration : 2 h 2 min
Bit rate : 126 b/s
Count of elements : 1355
Stream size : 113 KiB (0%)
Language : Telugu
Default : No
Forced : No

Text #3
ID : 5
Format : UTF-8
Codec ID : S_TEXT/UTF8
Codec ID/Info : UTF-8 Plain Text
Duration : 2 h 2 min
Bit rate : 110 b/s
Count of elements : 1337
Stream size : 99.3 KiB (0%)
Language : Telugu
Default : No
Forced : No



Darling (2007) 1080p - WEB-DL - H264 - DD5.1-TeamDUS
Darling (2007) 1080p - WEB-DL - H264 - DD5.1-TeamDUS
Darling (2007) 1080p - WEB-DL - H264 - DD5.1-TeamDUS
Darling (2007) 1080p - WEB-DL - H264 - DD5.1-TeamDUS
Darling (2007) 1080p - WEB-DL - H264 - DD5.1-TeamDUS
Darling (2007) 1080p - WEB-DL - H264 - DD5.1-TeamDUS
Darling (2007) 1080p - WEB-DL - H264 - DD5.1-TeamDUS
Darling (2007) 1080p - WEB-DL - H264 - DD5.1-TeamDUS
Darling (2007) 1080p - WEB-DL - H264 - DD5.1-TeamDUS


SINGLE DIRECT FAST LINKS

https://www.heroupload.com/ac17f0e9813801e7/Darling.2007.Hindi.1080p.WebHD.AVC.DD5.1.ESuBS-DUS.mkv


1GB LINKS



https://www.heroupload.com/1cf52ef4e68abdd9/Darling.2007.Hindi.1080p.WebHD.AVC.DD5.1.ESuBS-DUS.part1.rar
https://www.heroupload.com/e03eb807b365adc8/Darling.2007.Hindi.1080p.WebHD.AVC.DD5.1.ESuBS-DUS.part2.rar
https://www.heroupload.com/158b7f6201fcb1f4/Darling.2007.Hindi.1080p.WebHD.AVC.DD5.1.ESuBS-DUS.part3.rar
https://www.heroupload.com/c652ea84d5a99453/Darling.2007.Hindi.1080p.WebHD.AVC.DD5.1.ESuBS-DUS.part4.rar
https://www.heroupload.com/1563e15d12858b6a/Darling.2007.Hindi.1080p.WebHD.AVC.DD5.1.ESuBS-DUS.part5.rar
https://www.heroupload.com/7de69181dd16725b/Darling.2007.Hindi.1080p.WebHD.AVC.DD5.1.ESuBS-DUS.part6.rar


Buy Premium From My Links & Support Me

Теги: Darling

Dear visitor, you are browsing our website as Guest.
We strongly recommend you to register and login to view hidden contents.

Comments:

Add Comments