Set as default Homepage|Bookmark
 
 
» » Machine (2017) 11.4GB - 1080p - WEB-HD - AVC - AAC-DUS Exclusive
Advertise

Machine (2017) 11.4GB - 1080p - WEB-HD - AVC - AAC-DUS Exclusive

Author: wroser on 30-10-2017, 13:57
Machine (2017) 11.4GB - 1080p - WEB-HD - AVC - AAC-DUS Exclusive






General
Complete name                            : Machine (2017) - 12mbps 1080p WEBHD - DTOne.mp4
Format                                   : MPEG-4
Format profile                           : Base Media
Codec ID                                 : isom (isom/iso2/avc1/mp41)
File size                                : 11.4 GiB
Duration                                 : 2 h 14 min
Overall bit rate mode                    : Variable
Overall bit rate                         : 12.1 Mb/s
Writing application                      : Lavf56.40.101

Video
ID                                       : 1
Format                                   : AVC
Format/Info                              : Advanced Video Codec
Format profile                           : [email protected]
Format settings                          : CABAC / 4 Ref Frames
Format settings, CABAC                   : Yes
Format settings, RefFrames               : 4 frames
Codec ID                                 : avc1
Codec ID/Info                            : Advanced Video Coding
Duration                                 : 2 h 14 min
Bit rate                                 : 12.0 Mb/s
Width                                    : 1 920 pixels
Height                                   : 816 pixels
Display aspect ratio                     : 2.35:1
Frame rate mode                          : Constant
Frame rate                               : 25.000 FPS
Color space                              : YUV
Chroma subsampling                       : 4:2:0
Bit depth                                : 8 bits
Scan type                                : Progressive
Bits/(Pixel*Frame)                       : 0.306
Stream size                              : 11.2 GiB (98%)
Writing library                          : x264 core 138

Audio
ID                                       : 2
Format                                   : AAC
Format/Info                              : Advanced Audio Codec
Format profile                           : LC
Codec ID                                 : mp4a-40-2
Duration                                 : 2 h 14 min
Bit rate mode                            : Variable
Bit rate                                 : 192 kb/s
Maximum bit rate                         : 195 kb/s
Channel(s)                               : 2 channels
Channel positions                        : Front: L R
Sampling rate                            : 48.0 kHz
Frame rate                               : 46.875 FPS (1024 SPF)
Compression mode                         : Lossy
Stream size                              : 185 MiB (2%)
Default                                  : Yes
Alternate group                          : 1



Machine (2017) 11.4GB - 1080p - WEB-HD - AVC - AAC-DUS ExclusiveMachine (2017) 11.4GB - 1080p - WEB-HD - AVC - AAC-DUS ExclusiveMachine (2017) 11.4GB - 1080p - WEB-HD - AVC - AAC-DUS ExclusiveMachine (2017) 11.4GB - 1080p - WEB-HD - AVC - AAC-DUS ExclusiveMachine (2017) 11.4GB - 1080p - WEB-HD - AVC - AAC-DUS ExclusiveMachine (2017) 11.4GB - 1080p - WEB-HD - AVC - AAC-DUS ExclusiveMachine (2017) 11.4GB - 1080p - WEB-HD - AVC - AAC-DUS Exclusive



SINGLE DIRECT FAST LINKS


http://www.heroupload.com/50c3c5ac98d1e3b3/Machine.2017.1080p.WEBHD-DUS.mp4


1GB LINKS

http://www.heroupload.com/6d7e91547b25d9f0/Machine.2017.1080p.WEBHD-DUS.part01.rar
http://www.heroupload.com/d7a5429d29fa0ac0/Machine.2017.1080p.WEBHD-DUS.part02.rar
http://www.heroupload.com/5a824851b6e74820/Machine.2017.1080p.WEBHD-DUS.part03.rar
http://www.heroupload.com/a9a6534b714ef1b3/Machine.2017.1080p.WEBHD-DUS.part04.rar
http://www.heroupload.com/a888687f2f6c7781/Machine.2017.1080p.WEBHD-DUS.part05.rar
http://www.heroupload.com/f14d70c6e0c505e7/Machine.2017.1080p.WEBHD-DUS.part06.rar
http://www.heroupload.com/a02045dc53a61fb2/Machine.2017.1080p.WEBHD-DUS.part07.rar
http://www.heroupload.com/fc118517ef52d717/Machine.2017.1080p.WEBHD-DUS.part08.rar
http://www.heroupload.com/25d9ba6ac203a345/Machine.2017.1080p.WEBHD-DUS.part09.rar
http://www.heroupload.com/1f3bfc7630af18d3/Machine.2017.1080p.WEBHD-DUS.part10.rar
http://www.heroupload.com/964b9334a3b4b064/Machine.2017.1080p.WEBHD-DUS.part11.rar
http://www.heroupload.com/6901088d901a2e2c/Machine.2017.1080p.WEBHD-DUS.part12.rar



http://filefloater.com/90c/Machine.2017.1080p.WEBHD-DUS.part01.rar
http://filefloater.com/90d/Machine.2017.1080p.WEBHD-DUS.part02.rar
http://filefloater.com/90e/Machine.2017.1080p.WEBHD-DUS.part03.rar
http://filefloater.com/90f/Machine.2017.1080p.WEBHD-DUS.part04.rar
http://filefloater.com/90g/Machine.2017.1080p.WEBHD-DUS.part05.rar
http://filefloater.com/90h/Machine.2017.1080p.WEBHD-DUS.part06.rar
http://filefloater.com/6p0/Machine.2017.1080p.WEBHD-DUS.part07.rar
http://filefloater.com/6p1/Machine.2017.1080p.WEBHD-DUS.part08.rar
http://filefloater.com/6p2/Machine.2017.1080p.WEBHD-DUS.part09.rar
http://filefloater.com/6p3/Machine.2017.1080p.WEBHD-DUS.part10.rar
http://filefloater.com/6p4/Machine.2017.1080p.WEBHD-DUS.part11.rar
http://filefloater.com/6p5/Machine.2017.1080p.WEBHD-DUS.part12.rar


Dear visitor, you are browsing our website as Guest.
We strongly recommend you to register and login to view hidden contents.

Comments:

Add Comments