Set as default Homepage|Bookmark
 
 
» » Bhoomi (2017) 1080p - WEBHD - x264 - AAC2.0 - ESub - DUS Exclusive
Advertise

Bhoomi (2017) 1080p - WEBHD - x264 - AAC2.0 - ESub - DUS Exclusive

Author: wroser on 29-10-2017, 09:15
Bhoomi (2017) 1080p - WEBHD - x264 - AAC2.0 - ESub - DUS Exclusive





Format                      : MPEG-4
Format profile              : Base Media
Codec ID                    : isom (isom/iso2/avc1/mp41)
File size                   : 7.72 GiB
Duration                    : 2 h 12 min
Overall bit rate mode       : Variable
Overall bit rate            : 8 336 kb/s
Movie name                  : Bhoomi
Performer                   : LP1
Recorded date               : 2017
Encoded date                : UTC 2017-10-28 18:07:10
Tagged date                 : UTC 2017-10-28 18:07:10
Writing application         : Lavf51.12.1
Copyright                   : DTOne

Video
ID                          : 1
Format                      : AVC
Format/Info                 : Advanced Video Codec
Format profile              : [email protected]
Format settings             : 1 Ref Frames
Format settings, CABAC      : No
Format settings, RefFrames  : 1 frame
Format settings, GOP        : M=1, N=12
Codec ID                    : avc1
Codec ID/Info               : Advanced Video Coding
Duration                    : 2 h 12 min
Bit rate                    : 8 050 kb/s
Width                       : 1 920 pixels
Height                      : 1 080 pixels
Display aspect ratio        : 16:9
Frame rate mode             : Constant
Frame rate                  : 23.976 (23976/1000) FPS
Color space                 : YUV
Chroma subsampling          : 4:2:0
Bit depth                   : 8 bits
Scan type                   : Progressive
Bits/(Pixel*Frame)          : 0.162
Stream size                 : 7.46 GiB (97%)
Encoded date                : UTC 2017-10-28 18:07:10
Tagged date                 : UTC 2017-10-28 18:07:10

Audio
ID                          : 2
Format                      : AAC
Format/Info                 : Advanced Audio Codec
Format profile              : LC
Codec ID                    : mp4a-40-2
Duration                    : 2 h 12 min
Bit rate mode               : Variable
Bit rate                    : 277 kb/s
Channel(s)                  : 2 channels
Channel positions           : Front: L R
Sampling rate               : 48.0 kHz
Frame rate                  : 46.875 FPS (1024 SPF)
Compression mode            : Lossy
Stream size                 : 263 MiB (3%)
Encoded date                : UTC 2017-10-28 18:07:10
Tagged date                 : UTC 2017-10-28 18:07:10

Bhoomi (2017) 1080p - WEBHD - x264 - AAC2.0 - ESub - DUS ExclusiveBhoomi (2017) 1080p - WEBHD - x264 - AAC2.0 - ESub - DUS ExclusiveBhoomi (2017) 1080p - WEBHD - x264 - AAC2.0 - ESub - DUS ExclusiveBhoomi (2017) 1080p - WEBHD - x264 - AAC2.0 - ESub - DUS ExclusiveBhoomi (2017) 1080p - WEBHD - x264 - AAC2.0 - ESub - DUS ExclusiveBhoomi (2017) 1080p - WEBHD - x264 - AAC2.0 - ESub - DUS ExclusiveBhoomi (2017) 1080p - WEBHD - x264 - AAC2.0 - ESub - DUS Exclusive


SINGLE DIRECT FAST LINKS


http://www.heroupload.com/d1e3ff08763ad9be/Bhoomi.2017.1080p.WebHD.x264.AAC.2.0.ESub.Lovepreet1-DUS.Exclsuive.mp4


1GB LINKS
http://www.heroupload.com/576955bf8beda62c/Bhoomi.2017.1080p.WebHD.x264.AAC.2.0.ESub.Lovepreet1-DUS.Exclsuive.part1.rar
http://www.heroupload.com/b0dcbe3fe5646b90/Bhoomi.2017.1080p.WebHD.x264.AAC.2.0.ESub.Lovepreet1-DUS.Exclsuive.part2.rar
http://www.heroupload.com/bd25989f10a61cca/Bhoomi.2017.1080p.WebHD.x264.AAC.2.0.ESub.Lovepreet1-DUS.Exclsuive.part3.rar
http://www.heroupload.com/1dc9f366271f9608/Bhoomi.2017.1080p.WebHD.x264.AAC.2.0.ESub.Lovepreet1-DUS.Exclsuive.part4.rar
http://www.heroupload.com/7e8e61e0b5afed27/Bhoomi.2017.1080p.WebHD.x264.AAC.2.0.ESub.Lovepreet1-DUS.Exclsuive.part5.rar
http://www.heroupload.com/08b2ad85031c13f7/Bhoomi.2017.1080p.WebHD.x264.AAC.2.0.ESub.Lovepreet1-DUS.Exclsuive.part6.rar
http://www.heroupload.com/cb6d25fc45fa0adb/Bhoomi.2017.1080p.WebHD.x264.AAC.2.0.ESub.Lovepreet1-DUS.Exclsuive.part7.rar
http://www.heroupload.com/b2f82eaaf8eaa9eb/Bhoomi.2017.1080p.WebHD.x264.AAC.2.0.ESub.Lovepreet1-DUS.Exclsuive.part8.rar
http://www.heroupload.com/8b0b3c6bc1bee2a1/Bhoomi.2017.1080p.WebHD.x264.AAC.2.0.ESub.Lovepreet1-DUS.Exclsuive.srt



http://filefloater.com/bAd/Bhoomi.2017.1080p.WebHD.x264.AAC.2.0.ESub.Lovepreet1-DUS.Exclsuive.part1.rar
http://filefloater.com/bAe/Bhoomi.2017.1080p.WebHD.x264.AAC.2.0.ESub.Lovepreet1-DUS.Exclsuive.part2.rar
http://filefloater.com/bAf/Bhoomi.2017.1080p.WebHD.x264.AAC.2.0.ESub.Lovepreet1-DUS.Exclsuive.part3.rar
http://filefloater.com/bAg/Bhoomi.2017.1080p.WebHD.x264.AAC.2.0.ESub.Lovepreet1-DUS.Exclsuive.part4.rar
http://filefloater.com/bAh/Bhoomi.2017.1080p.WebHD.x264.AAC.2.0.ESub.Lovepreet1-DUS.Exclsuive.part5.rar
http://filefloater.com/8Z0/Bhoomi.2017.1080p.WebHD.x264.AAC.2.0.ESub.Lovepreet1-DUS.Exclsuive.part6.rar
http://filefloater.com/8Z1/Bhoomi.2017.1080p.WebHD.x264.AAC.2.0.ESub.Lovepreet1-DUS.Exclsuive.part7.rar
http://filefloater.com/8Z2/Bhoomi.2017.1080p.WebHD.x264.AAC.2.0.ESub.Lovepreet1-DUS.Exclsuive.part8.rar
http://filefloater.com/8Z3/Bhoomi.2017.1080p.WebHD.x264.AAC.2.0.ESub.Lovepreet1-DUS.Exclsuive.srt

Dear visitor, you are browsing our website as Guest.
We strongly recommend you to register and login to view hidden contents.

Comments:

Add Comments
Reply
  • Group: Members
  • ICQ:
  • Registration: 30.10.2017
  • Status: Currently Offline
  • 7 Comment
  • 0 Article
^
Народ у кого старый комп или ноут есть отличный способ при помощи небольшого патча можно играть
в любые современные игры с высокими настройками даже на самых слабых ПК. (Через сервис PLAYKEY)
GRAND THEFT AUTO V, ВЕДЬМАК 3, ASSASSIN'S CREED ORIGINS, COUNTER-STRIKE, WORLD OF TANKS и.т.д
Патч для бесплатного пользования сервисом скачивайте здесь.
Видео по установке и настройке патча смотрите тут.
Reply
  • Group: Guests
  • ICQ:
  • Registration: --
  • Status:
  • 0 Comment
  • 0 Article
^
Народ кто желает играть в современные игры на высоких настройках с динамичными теняими
даже на самых слабых ПК или ноутах. Без лагов и фризов (Но нужен более менее нормальный интернет).
Держите пожайлуста: Скачать саму прогу можно здесь. | Видео по установке и настройке смотрите тут.
Внимание!!! Данный патч позволяет играть бесплатно пять часов в сутки.
Если Вас интересует "Безлимит" то за 70 руб. в мес. обеспечу обновлние, поддержку и помогу с настройкой!
Играю уже девять месяцев на ведре 2005 г. Буду рад кому помог разорить буржуев игровой индустрии!!!
Если заинтересовало пишите в форму обратной связи. Перед покупкой протестируйте бесплатные возможности.