Set as default Homepage|Bookmark
 
 
» » Qaidi Band (2017) 720p - DVDRip - x264 - DD5.1 - ESubs - DUS Exclusive
Advertise

Qaidi Band (2017) 720p - DVDRip - x264 - DD5.1 - ESubs - DUS Exclusive

Author: wroser on 30-09-2017, 09:55
Qaidi Band (2017) 720p - DVDRip - x264 - DD5.1 - ESubs - DUS Exclusive





Format                      : Matroska
Format version              : Version 2
File size                   : 2.20 GiB
Duration                    : 2 h 1 min
Overall bit rate            : 2 598 kb/s
Encoded date                : UTC 2017-09-30 01:01:49
Writing application         : mkvmerge v7.0.0 ('Where We Going') 32bit built on Jun  9 2014 15:08:34
Writing library             : libebml v1.3.0 + libmatroska v1.4.1

Video
ID                          : 1
Format                      : AVC
Format/Info                 : Advanced Video Codec
Format profile              : [email protected]
Format settings             : CABAC / 4 Ref Frames
Format settings, CABAC      : Yes
Format settings, RefFrames  : 4 frames
Codec ID                    : V_MPEG4/ISO/AVC
Duration                    : 2 h 1 min
Bit rate                    : 2 149 kb/s
Width                       : 1 280 pixels
Height                      : 544 pixels
Display aspect ratio        : 2.35:1
Frame rate mode             : Constant
Frame rate                  : 23.976 (24000/1001) FPS
Color space                 : YUV
Chroma subsampling          : 4:2:0
Bit depth                   : 8 bits
Scan type                   : Progressive
Bits/(Pixel*Frame)          : 0.129
Stream size                 : 1.82 GiB (83%)
Writing library             : x264 core 142 r2431 ac76440
Encoding settings           : cabac=1 / ref=3 / deblock=1:0:0 / analyse=0x3:0x113 / me=hex / subme=7 / psy=1 / psy_rd=1.00:0.00 / mixed_ref=1 / me_range=16 / chroma_me=1 / trellis=1 / 8x8dct=1 / cqm=0 / deadzone=21,11 / fast_pskip=1 / chroma_qp_offset=-2 / threads=1 / lookahead_threads=1 / sliced_threads=0 / nr=0 / decimate=1 / interlaced=0 / bluray_compat=0 / constrained_intra=0 / bframes=3 / b_pyramid=2 / b_adapt=1 / b_bias=0 / direct=1 / weightb=1 / open_gop=0 / weightp=2 / keyint=240 / keyint_min=23 / scenecut=40 / intra_refresh=0 / rc_lookahead=40 / rc=2pass / mbtree=1 / bitrate=2149 / ratetol=1.0 / qcomp=0.60 / qpmin=0 / qpmax=69 / qpstep=4 / cplxblur=20.0 / qblur=0.5 / ip_ratio=1.40 / aq=1:1.00
Default                     : Yes
Forced                      : No

Audio
ID                          : 2
Format                      : AC-3
Format/Info                 : Audio Coding 3
Format settings, Endianness : Big
Codec ID                    : A_AC3
Duration                    : 2 h 0 min
Bit rate mode               : Constant
Bit rate                    : 448 kb/s
Channel(s)                  : 6 channels
Channel positions           : Front: L C R, Side: L R, LFE
Sampling rate               : 48.0 kHz
Frame rate                  : 31.250 FPS (1536 SPF)
Bit depth                   : 16 bits
Compression mode            : Lossy
Stream size                 : 387 MiB (17%)
Service kind                : Complete Main
Default                     : Yes
Forced                      : No


Qaidi Band (2017) 720p - DVDRip - x264 - DD5.1 - ESubs - DUS ExclusiveQaidi Band (2017) 720p - DVDRip - x264 - DD5.1 - ESubs - DUS ExclusiveQaidi Band (2017) 720p - DVDRip - x264 - DD5.1 - ESubs - DUS ExclusiveQaidi Band (2017) 720p - DVDRip - x264 - DD5.1 - ESubs - DUS ExclusiveQaidi Band (2017) 720p - DVDRip - x264 - DD5.1 - ESubs - DUS ExclusiveQaidi Band (2017) 720p - DVDRip - x264 - DD5.1 - ESubs - DUS ExclusiveQaidi Band (2017) 720p - DVDRip - x264 - DD5.1 - ESubs - DUS ExclusiveQaidi Band (2017) 720p - DVDRip - x264 - DD5.1 - ESubs - DUS Exclusive


SINGLE DIRECT FAST LINKS

http://www.heroupload.com/ced9e83404f765b1/Qaidi.Band.2017.720p.DVDRip.x264.UnTouched.DD5.1.ESubs-DUS.mkv


http://filefloater.com/3m6/Qaidi.Band.2017.720p.DVDRip.x264.UnTouched.DD5.1.ESubs-DUS.mkv

700MB LINKS

http://www.heroupload.com/41ad5beab48428a9/Qaidi.Band.2017.720p.DVDRip.x264.UnTouched.DD5.1.ESubs-DUS.part1.rar
http://www.heroupload.com/2431c05a01b1ff00/Qaidi.Band.2017.720p.DVDRip.x264.UnTouched.DD5.1.ESubs-DUS.part2.rar
http://www.heroupload.com/10e72489e57803c9/Qaidi.Band.2017.720p.DVDRip.x264.UnTouched.DD5.1.ESubs-DUS.part3.rar
http://www.heroupload.com/2ec8a5005249f0f6/Qaidi.Band.2017.720p.DVDRip.x264.UnTouched.DD5.1.ESubs-DUS.part4.rar
http://www.heroupload.com/7be7b310f992a2c9/Qaidi.Band.2017.720p.DVDRip.x264.UnTouched.DD5.1.ESubs-DUS.srt



http://filefloater.com/3m7/Qaidi.Band.2017.720p.DVDRip.x264.UnTouched.DD5.1.ESubs-DUS.part1.rar
http://filefloater.com/3m8/Qaidi.Band.2017.720p.DVDRip.x264.UnTouched.DD5.1.ESubs-DUS.part2.rar
http://filefloater.com/3m9/Qaidi.Band.2017.720p.DVDRip.x264.UnTouched.DD5.1.ESubs-DUS.part3.rar
http://filefloater.com/3ma/Qaidi.Band.2017.720p.DVDRip.x264.UnTouched.DD5.1.ESubs-DUS.part4.rar
http://filefloater.com/3mb/Qaidi.Band.2017.720p.DVDRip.x264.UnTouched.DD5.1.ESubs-DUS.srt


Dear visitor, you are browsing our website as Guest.
We strongly recommend you to register and login to view hidden contents.

Comments:

Add Comments