Set as default Homepage|Bookmark
 
 
» » Love and Shukla (2018) 720p - WEB-DL - AVC - AAC - Esubs-TT Exclusive
Advertise

Love and Shukla (2018) 720p - WEB-DL - AVC - AAC - Esubs-TT Exclusive

Author: wroser on 1-09-2018, 09:22
Love and Shukla (2018) 720p - WEB-DL - AVC - AAC - Esubs-TT Exclusive





Format                      : MPEG-4
Format profile              : Base Media
Codec ID                    : isom (isom/iso2/avc1/mp41)
File size                   : 1.29 GiB
Duration                    : 1 h 50 min
Overall bit rate            : 1 679 kb/s
Writing application         : Lavf58.12.100

Video
ID                          : 1
Format                      : AVC
Format/Info                 : Advanced Video Codec
Format profile              : [email protected]
Format settings, CABAC      : Yes
Format settings, RefFrames  : 3 frames
Codec ID                    : avc1
Codec ID/Info               : Advanced Video Coding
Duration                    : 1 h 50 min
Bit rate                    : 1 578 kb/s
Width                       : 1 280 pixels
Height                      : 720 pixels
Display aspect ratio        : 16:9
Frame rate mode             : Constant
Frame rate                  : 24.000 FPS
Color space                 : YUV
Chroma subsampling          : 4:2:0
Bit depth                   : 8 bits
Scan type                   : Progressive
Bits/(Pixel*Frame)          : 0.071
Stream size                 : 1.21 GiB (94%)

Audio
ID                          : 2
Format                      : AAC
Format/Info                 : Advanced Audio Codec
Format profile              : HE-AAC / LC
Codec ID                    : 40
Duration                    : 1 h 50 min
Bit rate mode               : Constant
Bit rate                    : 96.0 kb/s
Channel(s)                  : 2 channels
Channel positions           : Front: L R
Sampling rate               : 48.0 kHz / 24.0 kHz
Frame rate                  : 23.438 FPS (1024 SPF)
Compression mode            : Lossy
Stream size                 : 75.6 MiB (6%)
Default                     : Yes
Alternate group             : 1


Love and Shukla (2018) 720p - WEB-DL - AVC - AAC - Esubs-TT ExclusiveLove and Shukla (2018) 720p - WEB-DL - AVC - AAC - Esubs-TT ExclusiveLove and Shukla (2018) 720p - WEB-DL - AVC - AAC - Esubs-TT ExclusiveLove and Shukla (2018) 720p - WEB-DL - AVC - AAC - Esubs-TT ExclusiveLove and Shukla (2018) 720p - WEB-DL - AVC - AAC - Esubs-TT ExclusiveLove and Shukla (2018) 720p - WEB-DL - AVC - AAC - Esubs-TT Exclusive

SINGLE DIRECT FAST LINKS

http://www.heroupload.us/de2e65c6358cf3c2/Love.and.Shukla.2018.720p.WEB-DL.AVC.AAC.Esubs-TT.mp4
http://www.heroupload.us/39819b64a6c25ae4/Love.and.Shukla.2018.720p.WEB-DL.AVC.AAC.Esubs-TT.srt



http://filefloater.com/Uy9/Love.and.Shukla.2018.720p.WEB-DL.AVC.AAC.Esubs-TT.mp4
http://filefloater.com/Uya/Love.and.Shukla.2018.720p.WEB-DL.AVC.AAC.Esubs-TT.srt




Buy Premium From My Links & Support Me

Теги: Love

Dear visitor, you are browsing our website as Guest.
We strongly recommend you to register and login to view hidden contents.

Comments:

Add Comments