Set as default Homepage|Bookmark
 
 
» » Kuchh Bheege Alfaaz (2018) 1080p - HDTVRip - Untouched AVC - AAC-DUS Exclusive
Advertise

Kuchh Bheege Alfaaz (2018) 1080p - HDTVRip - Untouched AVC - AAC-DUS Exclusive

Author: wroser on 31-08-2018, 22:03
Kuchh Bheege Alfaaz (2018) 1080p - HDTVRip - Untouched AVC - AAC-DUS Exclusive





Format                                   : Matroska
Format version                           : Version 4 / Version 2
File size                                : 1.43 GiB
Duration                                 : 1 h 49 min
Overall bit rate                         : 1 873 kb/s
Encoded date                             : UTC 2018-08-31 04:47:36
Writing application                      : mkvmerge v24.0.0 ('Beyond The Pale') 32-bit
Writing library                          : libebml v1.3.6 + libmatroska v1.4.9

Video
ID                                       : 1
Format                                   : AVC
Format/Info                              : Advanced Video Codec
Format profile                           : [email protected]
Format settings                          : CABAC / 4 Ref Frames
Format settings, CABAC                   : Yes
Format settings, RefFrames               : 4 frames
Codec ID                                 : V_MPEG4/ISO/AVC
Duration                                 : 1 h 49 min
Bit rate                                 : 1 773 kb/s
Width                                    : 1 920 pixels
Height                                   : 1 080 pixels
Display aspect ratio                     : 16:9
Frame rate mode                          : Variable
Frame rate                               : 50.000 FPS
Original frame rate                      : 25.000 FPS
Color space                              : YUV
Chroma subsampling                       : 4:2:0
Bit depth                                : 8 bits
Scan type                                : Interlaced
Scan type, store method                  : Separated fields
Scan order                               : Top Field First
Bits/(Pixel*Frame)                       : 0.017
Stream size                              : 1.36 GiB (95%)
Default                                  : Yes
Forced                                   : No
Color range                              : Limited
Color primaries                          : BT.709
Transfer characteristics                 : BT.709
Matrix coefficients                      : BT.709

Audio
ID                                       : 2
Format                                   : MPEG Audio
Format version                           : Version 1
Format profile                           : Layer 2
Codec ID                                 : A_MPEG/L2
Codec ID/Hint                            : MP2
Duration                                 : 1 h 49 min
Bit rate mode                            : Constant
Bit rate                                 : 96.0 kb/s
Channel(s)                               : 2 channels
Sampling rate                            : 48.0 kHz
Frame rate                               : 41.667 FPS (1152 SPF)
Compression mode                         : Lossy
Delay relative to video                  : 80 ms
Stream size                              : 75.1 MiB (5%)
Language                                 : Hindi
Default                                  : Yes
Forced                                   : No


Kuchh Bheege Alfaaz (2018) 1080p - HDTVRip - Untouched AVC - AAC-DUS ExclusiveKuchh Bheege Alfaaz (2018) 1080p - HDTVRip - Untouched AVC - AAC-DUS ExclusiveKuchh Bheege Alfaaz (2018) 1080p - HDTVRip - Untouched AVC - AAC-DUS ExclusiveKuchh Bheege Alfaaz (2018) 1080p - HDTVRip - Untouched AVC - AAC-DUS ExclusiveKuchh Bheege Alfaaz (2018) 1080p - HDTVRip - Untouched AVC - AAC-DUS ExclusiveKuchh Bheege Alfaaz (2018) 1080p - HDTVRip - Untouched AVC - AAC-DUS Exclusive

SINGLE DIRECT FAST LINKS

http://www.heroupload.us/bcc7acbfbdddb283/Kuchh.Bheege.Alfaaz.2018.1080p.HDTVRip.Untouched-DUS.mkv



http://filefloater.com/1Kzy/Kuchh.Bheege.Alfaaz.2018.1080p.HDTVRip.Untouched-DUS.mkv


Buy Premium From My Links & Support Me

Теги: Kuchh

Dear visitor, you are browsing our website as Guest.
We strongly recommend you to register and login to view hidden contents.

Comments:

Add Comments