Set as default Homepage|Bookmark
 
 
» » Welcome 2 Karachi (2015) Hindi - 1.45GB - HDTVRip - x264 - DD 2.0 [HHD-Exclusive]
Advertise

Welcome 2 Karachi (2015) Hindi - 1.45GB - HDTVRip - x264 - DD 2.0 [HHD-Exclusive]

Author: wroser on 2-02-2017, 23:09
Welcome 2 Karachi (2015) Hindi - 1.45GB - HDTVRip - x264 - DD 2.0 [HHD-Exclusive]







General
Format                      : Matroska
Format version              : Version 4 / Version 2
File size                   : 1.45 GiB
Duration                    : 2 h 1 min
Overall bit rate            : 1 700 kb/s

Video
Format                      : AVC
Format/Info                 : Advanced Video Codec
Format profile              : [email protected]
Format settings, CABAC      : Yes
Format settings, ReFrames   : 12 frames
Codec ID                    : V_MPEG4/ISO/AVC
Duration                    : 2 h 1 min
Bit rate                    : 1 507 kb/s
Width                       : 720 pixels
Height                      : 304 pixels
Display aspect ratio        : 2.35:1
Frame rate mode             : Constant
Frame rate                  : 23.976 (24000/1001) FPS
Color space                 : YUV
Chroma subsampling          : 4:2:0
Bit depth                   : 8 bits
Scan type                   : Progressive
Bits/(Pixel*Frame)          : 0.287
Stream size                 : 1.28 GiB (88%)
Audio
Format                      : AAC
Format/Info                 : Advanced Audio Codec
Format profile              : LC
Codec ID                    : A_AAC
Duration                    : 2 h 1 min
Bit rate                    : 192 kb/s
Channel(s)                  : 2 channels
Channel positions           : Front: L R
Sampling rate               : 44.1 kHz
Frame rate                  : 43.066 FPS (1024 spf)
Compression mode            : Lossy
Stream size                 : 169 MiB (11%)
Language                    : Hindi
Default                     : Yes



Welcome 2 Karachi (2015) Hindi - 1.45GB - HDTVRip - x264 - DD 2.0 [HHD-Exclusive]
Welcome 2 Karachi (2015) Hindi - 1.45GB - HDTVRip - x264 - DD 2.0 [HHD-Exclusive]
Welcome 2 Karachi (2015) Hindi - 1.45GB - HDTVRip - x264 - DD 2.0 [HHD-Exclusive]
Welcome 2 Karachi (2015) Hindi - 1.45GB - HDTVRip - x264 - DD 2.0 [HHD-Exclusive]
Welcome 2 Karachi (2015) Hindi - 1.45GB - HDTVRip - x264 - DD 2.0 [HHD-Exclusive]
Welcome 2 Karachi (2015) Hindi - 1.45GB - HDTVRip - x264 - DD 2.0 [HHD-Exclusive]
Welcome 2 Karachi (2015) Hindi - 1.45GB - HDTVRip - x264 - DD 2.0 [HHD-Exclusive]
Welcome 2 Karachi (2015) Hindi - 1.45GB - HDTVRip - x264 - DD 2.0 [HHD-Exclusive]
Welcome 2 Karachi (2015) Hindi - 1.45GB - HDTVRip - x264 - DD 2.0 [HHD-Exclusive]
Welcome 2 Karachi (2015) Hindi - 1.45GB - HDTVRip - x264 - DD 2.0 [HHD-Exclusive]
Welcome 2 Karachi (2015) Hindi - 1.45GB - HDTVRip - x264 - DD 2.0 [HHD-Exclusive]
Welcome 2 Karachi (2015) Hindi - 1.45GB - HDTVRip - x264 - DD 2.0 [HHD-Exclusive]


Buy a Premium Account for Fast Speed


[B]SINGLE DIRECT FAST LINKS[/B]


http://www.heroupload.com/56b49cc3364ea3bb/Welcome.2.Karachi.2015.Hindi.HDTVRip.480p.x264.DD.2.0-HHD.mkv





Dear visitor, you are browsing our website as Guest.
We strongly recommend you to register and login to view hidden contents.

Comments:

Add Comments