Set as default Homepage|Bookmark
 
 
» » Split 2017 TS XviD-INFERNO
Advertise

Split 2017 TS XviD-INFERNO

Author: wroser on 8-02-2017, 02:10

Split 2017 TS XviD-INFERNO







http://www.imdb.com/title/tt4972582/



Infomation


General
Complete name               : Split 2017 TS Xvid - jtr -INFERNO
Format                      : AVI
Format/Info                 : Audio Video Interleave
File size                   : 1.10 GiB
Duration                    : 1 h 50 min
Overall bit rate            : 1 414 kb/s
Writing library             : VirtualDub build 32842/release

Video
ID                          : 0
Format                      : MPEG-4 Visual
Format profile              : Advanced [email protected]
Format settings, BVOP       : 2
Format settings, QPel       : No
Format settings, GMC        : No warppoints
Format settings, Matrix     : Default (H.263)
Muxing mode                 : Packed bitstream
Codec ID                    : XVID
Codec ID/Hint               : XviD
Duration                    : 1 h 50 min
Bit rate                    : 1 275 kb/s
Width                       : 720 pixels
Height                      : 308 pixels
Display aspect ratio        : 2.35:1
Frame rate                  : 29.000 FPS
Original frame rate         : 29.010 FPS
Color space                 : YUV
Chroma subsampling          : 4:2:0
Bit depth                   : 8 bits
Scan type                   : Progressive
Compression mode            : Lossy
Bits/(Pixel*Frame)          : 0.198
Stream size                 : 1 011 MiB (90%)
Writing library             : XviD 64

Audio
ID                          : 1
Format                      : MPEG Audio
Format version              : Version 1
Format profile              : Layer 3
Mode                        : Joint stereo
Mode extension              : MS Stereo
Codec ID                    : 55
Codec ID/Hint               : MP3
Duration                    : 1 h 50 min
Bit rate mode               : Constant
Bit rate                    : 128 kb/s
Channel(s)                  : 2 channels
Sampling rate               : 44.1 kHz
Compression mode            : Lossy
Delay relative to video     : 5 ms
Stream size                 : 101 MiB (9%)
Alignment                   : Split accross interleaves
Interleave, duration        : 34  ms (1.00 video frame)
Interleave, preload duratio : 500  m




Split 2017 TS XviD-INFERNO
Split 2017 TS XviD-INFERNO
Split 2017 TS XviD-INFERNO
Split 2017 TS XviD-INFERNO


[B]SINGLE DIRECT FAST LINKS[/B]

http://www.heroupload.com/f19058a90b4a87eb/Split_2017_TS_XviD_-_INFERNO.avi




Dear visitor, you are browsing our website as Guest.
We strongly recommend you to register and login to view hidden contents.

Comments:

Add Comments