Set as default Homepage|Bookmark
 
 
» » Mississippi Murder (2017) 1080p WEB-DL DD5.1 H264-FGT
Advertise

Mississippi Murder (2017) 1080p WEB-DL DD5.1 H264-FGT

Author: wroser on 7-02-2017, 20:14

Mississippi Murder (2017) 1080p WEB-DL DD5.1 H264-FGT





http://imdb.com/title/tt2827058/

Video
ID                                       : 1
Format                                   : AVC
Format/Info                              : Advanced Video Codec
Format profile                           : [email protected]
Format settings, CABAC                   : Yes
Format settings, ReFrames                : 5 frames
Codec ID                                 : V_MPEG4/ISO/AVC
Duration                                 : 1h 23mn
Bit rate                                 : 4 482 Kbps
Width                                    : 1 920 pixels
Height                                   : 798 pixels
Display aspect ratio                     : 2.40:1
Frame rate mode                          : Constant
Frame rate                               : 23.976 fps
Color space                              : YUV
Chroma subsampling                       : 4:2:0
Bit depth                                : 8 bits
Scan type                                : Progressive
Bits/(Pixel*Frame)                       : 0.122
Stream size                              : 2.63 GiB (90%)
Title                                    : Mississippi.Murder.2017.1080p.WEB-DL.DD5.1.H264-FGT
Language                                 : English
Default                                  : Yes
Forced                                   : No
Color range                              : Limited
Color primaries                          : BT.709
Transfer characteristics                 : BT.709
Matrix coefficients                      : BT.709

Audio
ID                                       : 2
Format                                   : AC-3
Format/Info                              : Audio Coding 3
Mode extension                           : CM (complete main)
Format settings, Endianness              : Big
Codec ID                                 : A_AC3
Duration                                 : 1h 23mn
Bit rate mode                            : Constant
Bit rate                                 : 384 Kbps
Channel(s)                               : 6 channels
Channel positions                        : Front: L C R, Side: L R, LFE
Sampling rate                            : 48.0 KHz
Frame rate                               : 31.250 fps (1536 spf)
Compression mode                         : Lossy
Stream size                              : 230 MiB (8%)
Title                                    : Mississippi.Murder.2017.1080p.WEB-DL.DD5.1.H264-FGT
Language                                 : English
Default                                  : Yes
Forced                                   : No

Text
ID                                       : 3
Format                                   : UTF-8
Codec ID                                 : S_TEXT/UTF8
Codec ID/Info                            : UTF-8 Plain Text
Language                                 : English
Default                                  : Yes
Forced                                   : No

Menu
00:00:00.000                             : en:1
00:03:37.509                             : en:2
00:11:27.729                             : en:3
00:15:52.744                             : en:4
00:20:32.523                             : en:5
00:24:13.535                             : en:6
00:30:21.778                             : en:7
00:36:36.694                             : en:8
00:43:21.682                             : en:9
00:46:48.346                             : en:10
00:51:49.397                             : en:11
00:56:18.791                             : en:12
01:04:46.048                             : en:13
01:07:05.353                             : en:14
01:12:04.443                             : en:15
01:19:40.190                             : en:16


Mississippi Murder (2017) 1080p WEB-DL DD5.1 H264-FGT
[B] SINGLE DIRECT FAST LINKS[/B]

http://www.heroupload.com/d2fd676d6d43d851/Mississippi.Murder.2017.1080p.WEB-DL.DD5.1.H264-FGT.mkv


[B] 1GB LINKS[/B]



http://www.heroupload.com/b0c81d0f0cadf329/Mississippi.Murder.2017.1080p.WEB-DL.DD5.1.H264-FGT.part1.rar
http://www.heroupload.com/18e21a016c10937e/Mississippi.Murder.2017.1080p.WEB-DL.DD5.1.H264-FGT.part2.rar
http://www.heroupload.com/26f6baef5a07a3d4/Mississippi.Murder.2017.1080p.WEB-DL.DD5.1.H264-FGT.part3.rar




Dear visitor, you are browsing our website as Guest.
We strongly recommend you to register and login to view hidden contents.

Comments:

Add Comments