Set as default Homepage|Bookmark
 
 
» » We All Fall Down (2016) 1080p WEB-DL DD5.1 H264-FGT
Advertise

We All Fall Down (2016) 1080p WEB-DL DD5.1 H264-FGT

Author: wroser on 7-02-2017, 15:04

We All Fall Down (2016) 1080p WEB-DL DD5.1 H264-FGT





http://imdb.com/title/tt5555174/

Video
ID                                       : 1
Format                                   : AVC
Format/Info                              : Advanced Video Codec
Format profile                           : [email protected]
Format settings, CABAC                   : Yes
Format settings, ReFrames                : 4 frames
Codec ID                                 : V_MPEG4/ISO/AVC
Duration                                 : 1h 20mn
Bit rate                                 : 5 009 Kbps
Width                                    : 1 908 pixels
Height                                   : 1 068 pixels
Display aspect ratio                     : 16:9
Frame rate mode                          : Constant
Frame rate                               : 23.976 (24000/1001) fps
Color space                              : YUV
Chroma subsampling                       : 4:2:0
Bit depth                                : 8 bits
Scan type                                : Progressive
Bits/(Pixel*Frame)                       : 0.103
Stream size                              : 2.81 GiB (91%)
Title                                    : We.All.Fall.Down.2016.1080p.WEB-DL.DD5.1.H264-FGT
Language                                 : English
Default                                  : Yes
Forced                                   : No
Color range                              : Limited
Color primaries                          : BT.709
Transfer characteristics                 : BT.709
Matrix coefficients                      : BT.709

Audio
ID                                       : 2
Format                                   : AC-3
Format/Info                              : Audio Coding 3
Mode extension                           : CM (complete main)
Format settings, Endianness              : Big
Codec ID                                 : A_AC3
Duration                                 : 1h 20mn
Bit rate mode                            : Constant
Bit rate                                 : 384 Kbps
Channel(s)                               : 6 channels
Channel positions                        : Front: L C R, Side: L R, LFE
Sampling rate                            : 48.0 KHz
Frame rate                               : 31.250 fps (1536 spf)
Compression mode                         : Lossy
Stream size                              : 220 MiB (7%)
Title                                    : We.All.Fall.Down.2016.1080p.WEB-DL.DD5.1.H264-FGT
Language                                 : English
Default                                  : Yes
Forced                                   : No

Text
ID                                       : 3
Format                                   : UTF-8
Codec ID                                 : S_TEXT/UTF8
Codec ID/Info                            : UTF-8 Plain Text
Language                                 : English
Default                                  : Yes
Forced                                   : No

Menu
00:00:00.000                             : en:1
00:08:08.000                             : en:2
00:22:00.000                             : en:3
00:33:21.000                             : en:4
00:42:13.000                             : en:5
00:49:42.000                             : en:6
01:02:07.000                             : en:7
01:08:34.000                             : en:8
01:17:20.000                             : en:9



We All Fall Down (2016) 1080p WEB-DL DD5.1 H264-FGT


[B]
SINGLE DIRECT FAST LINKS[/B]

http://www.heroupload.com/758e47517fdb8a2b/We.All.Fall.Down.2016.1080p.WEB-DL.DD5.1.H264-FGT.mkv


[B]1GB LINKS[/B]


http://www.heroupload.com/546e45cfdf9255b3/We.All.Fall.Down.2016.1080p.WEB-DL.DD5.1.H264-FGT.part1.rar
http://www.heroupload.com/71fcc284c7f2b693/We.All.Fall.Down.2016.1080p.WEB-DL.DD5.1.H264-FGT.part2.rar
http://www.heroupload.com/c4da5dffcee51098/We.All.Fall.Down.2016.1080p.WEB-DL.DD5.1.H264-FGT.part3.rar
http://www.heroupload.com/06aea88dd31ec87e/We.All.Fall.Down.2016.1080p.WEB-DL.DD5.1.H264-FGT.part4.rar


Dear visitor, you are browsing our website as Guest.
We strongly recommend you to register and login to view hidden contents.

Comments:

Add Comments