Set as default Homepage|Bookmark
 
 
» » Dont Knock Twice (2016) 1080p WEB-DL DD5.1 H264-FGT
Advertise

Dont Knock Twice (2016) 1080p WEB-DL DD5.1 H264-FGT

Author: wroser on 3-02-2017, 16:41

Dont Knock Twice (2016) 1080p WEB-DL DD5.1 H264-FGT





http://imdb.com/title/tt3622110/

Video
ID                                       : 1
Format                                   : AVC
Format/Info                              : Advanced Video Codec
Format profile                           : [email protected]
Format settings, CABAC                   : Yes
Format settings, ReFrames                : 5 frames
Codec ID                                 : V_MPEG4/ISO/AVC
Duration                                 : 1h 33mn
Bit rate                                 : 4 493 Kbps
Width                                    : 1 920 pixels
Height                                   : 796 pixels
Display aspect ratio                     : 2.40:1
Frame rate mode                          : Constant
Frame rate                               : 23.976 (24000/1001) fps
Color space                              : YUV
Chroma subsampling                       : 4:2:0
Bit depth                                : 8 bits
Scan type                                : Progressive
Bits/(Pixel*Frame)                       : 0.123
Stream size                              : 2.92 GiB (90%)
Title                                    : Dont.Knock.Twice.2016.1080p.WEB-DL.DD5.1.H264-FGT
Language                                 : English
Default                                  : Yes
Forced                                   : No
Color range                              : Limited
Color primaries                          : BT.709
Transfer characteristics                 : BT.709
Matrix coefficients                      : BT.709

Audio
ID                                       : 2
Format                                   : AC-3
Format/Info                              : Audio Coding 3
Mode extension                           : CM (complete main)
Format settings, Endianness              : Big
Codec ID                                 : A_AC3
Duration                                 : 1h 33mn
Bit rate mode                            : Constant
Bit rate                                 : 384 Kbps
Channel(s)                               : 6 channels
Channel positions                        : Front: L C R, Side: L R, LFE
Sampling rate                            : 48.0 KHz
Frame rate                               : 31.250 fps (1536 spf)
Compression mode                         : Lossy
Stream size                              : 256 MiB (8%)
Title                                    : Dont.Knock.Twice.2016.1080p.WEB-DL.DD5.1.H264-FGT
Language                                 : English
Default                                  : Yes
Forced                                   : No

Text
ID                                       : 3
Format                                   : UTF-8
Codec ID                                 : S_TEXT/UTF8
Codec ID/Info                            : UTF-8 Plain Text
Language                                 : English
Default                                  : Yes
Forced                                   : No

Menu
00:00:00.000                             : en:1
00:11:31.691                             : en:2
00:21:14.273                             : en:3
00:32:35.954                             : en:4
00:43:37.615                             : en:5
00:54:11.248                             : en:6
01:03:14.791                             : en:7
01:20:03.800                             : en:8
01:31:24.480                             : en:9

Dont Knock Twice (2016) 1080p WEB-DL DD5.1 H264-FGT

[B]SINGLE DIRECT FAST LINKS[/B]

http://www.heroupload.com/bd3a723c5ec5e44a/Dont.Knock.Twice.2016.1080p.WEB-DL.DD5.1.H264-FGT.mkv


[B] 1GB LINKS[/B]



http://www.heroupload.com/78b7b7fbc8d3c3e4/Dont.Knock.Twice.2016.1080p.WEB-DL.DD5.1.H264-FGT.part1.rar
http://www.heroupload.com/84363bba36e837a2/Dont.Knock.Twice.2016.1080p.WEB-DL.DD5.1.H264-FGT.part2.rar
http://www.heroupload.com/3a2f3cb3736ac703/Dont.Knock.Twice.2016.1080p.WEB-DL.DD5.1.H264-FGT.part3.rar
http://www.heroupload.com/feea142ca87bf513/Dont.Knock.Twice.2016.1080p.WEB-DL.DD5.1.H264-FGT.part4.rar




Dear visitor, you are browsing our website as Guest.
We strongly recommend you to register and login to view hidden contents.

Comments:

Add Comments