Set as default Homepage|Bookmark
 
 
» » Wheeler (2017) 1080p WEB-DL DD5.1 H264-FGT
Advertise

Wheeler (2017) 1080p WEB-DL DD5.1 H264-FGT

Author: wroser on 3-02-2017, 16:09


Wheeler (2017) 1080p WEB-DL DD5.1 H264-FGT






http://imdb.com/title/tt6290736/

Video
ID                                       : 1
Format                                   : AVC
Format/Info                              : Advanced Video Codec
Format profile                           : [email protected]
Format settings, CABAC                   : Yes
Format settings, ReFrames                : 4 frames
Codec ID                                 : V_MPEG4/ISO/AVC
Duration                                 : 1h 40mn
Bit rate                                 : 5 099 Kbps
Width                                    : 1 920 pixels
Height                                   : 1 036 pixels
Display aspect ratio                     : 1.85:1
Frame rate mode                          : Constant
Frame rate                               : 23.976 fps
Color space                              : YUV
Chroma subsampling                       : 4:2:0
Bit depth                                : 8 bits
Scan type                                : Progressive
Bits/(Pixel*Frame)                       : 0.107
Stream size                              : 3.58 GiB (91%)
Title                                    : Wheeler.2017.1080p.WEB-DL.DD5.1.H264-FGT
Language                                 : English
Default                                  : Yes
Forced                                   : No
Color range                              : Limited
Color primaries                          : BT.709
Transfer characteristics                 : BT.709
Matrix coefficients                      : BT.709

Audio
ID                                       : 2
Format                                   : AC-3
Format/Info                              : Audio Coding 3
Mode extension                           : CM (complete main)
Format settings, Endianness              : Big
Codec ID                                 : A_AC3
Duration                                 : 1h 40mn
Bit rate mode                            : Constant
Bit rate                                 : 384 Kbps
Channel(s)                               : 6 channels
Channel positions                        : Front: L C R, Side: L R, LFE
Sampling rate                            : 48.0 KHz
Frame rate                               : 31.250 fps (1536 spf)
Compression mode                         : Lossy
Stream size                              : 276 MiB (7%)
Title                                    : Wheeler.2017.1080p.WEB-DL.DD5.1.H264-FGT
Language                                 : English
Default                                  : Yes
Forced                                   : No

Text
ID                                       : 3
Format                                   : UTF-8
Codec ID                                 : S_TEXT/UTF8
Codec ID/Info                            : UTF-8 Plain Text
Language                                 : English
Default                                  : Yes
Forced                                   : No

Menu
00:00:00.000                             : en:1
00:06:33.351                             : en:2
00:13:43.906                             : en:3
00:18:37.032                             : en:4
00:25:11.301                             : en:5
00:31:50.158                             : en:6
00:37:00.801                             : en:7
00:40:27.507                             : en:8
00:47:54.537                             : en:9
00:54:12.164                             : en:10
00:59:26.061                             : en:11
01:06:53.508                             : en:12
01:10:46.616                             : en:13
01:21:00.146                             : en:14
01:25:11.605                             : en:15
01:30:40.600                             : en:16


Wheeler (2017) 1080p WEB-DL DD5.1 H264-FGT
Wheeler (2017) 1080p WEB-DL DD5.1 H264-FGT
Wheeler (2017) 1080p WEB-DL DD5.1 H264-FGT
[B]SINGLE DIRECT FAST LINKS[/B]

http://www.heroupload.com/0df8e364c688d10c/Wheeler.2017.1080p.WEB-DL.DD5.1.H264-FGT.mkv



[B] 1GB LINKS[/B]





http://www.heroupload.com/4fc34f0b937a9e32/Wheeler.2017.1080p.WEB-DL.DD5.1.H264-FGT.part1.rar
http://www.heroupload.com/4fae2bf467b030e0/Wheeler.2017.1080p.WEB-DL.DD5.1.H264-FGT.part2.rar
http://www.heroupload.com/21973c6192f30f6c/Wheeler.2017.1080p.WEB-DL.DD5.1.H264-FGT.part3.rar
http://www.heroupload.com/8f189d60138f5f97/Wheeler.2017.1080p.WEB-DL.DD5.1.H264-FGT.part4.rar

Dear visitor, you are browsing our website as Guest.
We strongly recommend you to register and login to view hidden contents.

Comments:

Add Comments