Set as default Homepage|Bookmark
 
 
» » Rocketman (2019) 720p BluRay x264 AAC [Dual Audio][Hindi+English] - GP
Advertise

Rocketman (2019) 720p BluRay x264 AAC [Dual Audio][Hindi+English] - GP

Author: wroser on 20-09-2019, 13:12
Rocketman (2019) 720p BluRay x264 AAC [Dual Audio][Hindi+English] - GP







Format : Matroska
Format version : Version 4
File size : 1 008 MiB
Duration : 2 h 1 min
Overall bit rate : 1 159 kb/s
Movie name : Rocketman 2019 GOPISAHI

Video
Format : AVC
Format/Info : Advanced Video Codec
Format profile : [email protected]
Format settings : CABAC / 12 Ref Frames
Format settings, CABAC : Yes
Format settings, Reference fra : 12 frames
Codec ID : V_MPEG4/ISO/AVC
Duration : 2 h 1 min
Bit rate : 899 kb/s
Width : 1 280 pixels
Height : 532 pixels
Display aspect ratio : 2.40:1
Frame rate mode : Constant
Frame rate : 23.976 (24000/1001) FPS
Color space : YUV
Chroma subsampling : 4:2:0
Bit depth : 8 bits
Scan type : Progressive
Bits/(Pixel*Frame) : 0.055
Stream size : 782 MiB (78%)
Title : GOPISAHI
Writing library : x264 core 157 r2935 545de2f

Audio #1
Format : AAC LC
Duration : 2 h 1 min
Bit rate : 129 kb/s
Channel(s) : 2 channels
Channel layout : L R
Sampling rate : 48.0 kHz
Frame rate : 46.875 FPS (1024 SPF)
Compression mode : Lossy
Delay relative to video : -64 ms
Stream size : 112 MiB (11%)
Title : GOPISAHI
Language : Hindi

Audio #2
Format : AAC LC
Duration : 2 h 1 min
Bit rate : 129 kb/s
Channel(s) : 2 channels
Channel layout : L R
Sampling rate : 48.0 kHz
Frame rate : 46.875 FPS (1024 SPF)
Compression mode : Lossy
Delay relative to video : -64 ms
Stream size : 112 MiB (11%)
Title : GOPISAHI
Language : English

Menu
00:00:00.000 : en:Chapter 1
00:05:50.000 : en:Chapter 2
00:11:20.000 : en:Chapter 3
00:18:41.000 : en:Chapter 4
00:22:38.000 : en:Chapter 5
00:27:59.000 : en:Chapter 6
00:34:19.000 : en:Chapter 7
00:38:32.000 : en:Chapter 8
00:42:49.000 : en:Chapter 9
00:50:37.000 : en:Chapter 10
00:57:27.000 : en:Chapter 11
01:04:02.000 : en:Chapter 12
01:09:24.000 : en:Chapter 13
01:16:06.000 : en:Chapter 14
01:24:39.000 : en:Chapter 15
01:29:04.000 : en:Chapter 16
01:35:16.000 : en:Chapter 17
01:42:40.000 : en:Chapter 18
01:51:05.000 : en:Chapter 19
01:55:18.000 : en:Chapter 20 




Rocketman (2019) 720p BluRay x264 AAC [Dual Audio][Hindi+English] - GP

Rocketman (2019) 720p BluRay x264 AAC [Dual Audio][Hindi+English] - GP

SINGLE DIRECT FAST LINKS


https://www.heroupload.com/eaf44422877b012d/Rocketman.2019.x264.720p.Esub.HD.Dual.Audio.English.Hindi-GOPISAHI.mkv



Теги: Rocketman

Dear visitor, you are browsing our website as Guest.
We strongly recommend you to register and login to view hidden contents.

Comments:

Add Comments