Set as default Homepage|Bookmark
 
 
» » Alita: Battle Angel (2019) 1080p HDRip x264 [Multi Line Audio][Hindi+Telugu+Tamil+Eng
Advertise

Alita: Battle Angel (2019) 1080p HDRip x264 [Multi Line Audio][Hindi+Telugu+Tamil+Eng

Author: wroser on 29-06-2019, 10:20
Alita: Battle Angel (2019) 1080p HDRip x264 [Multi Line Audio][Hindi+Telugu+Tamil+Eng




Format                      : Matroska
Format version              : Version 4
File size                   : 1.93 GiB
Duration                    : 2 h 1 min
Overall bit rate mode       : Variable
Overall bit rate            : 2 274 kb/s
Encoded date                : UTC 2019-06-29 06:31:44
Writing application         : mkvmerge v33.1.0 ('Primrose') 32-bit
Writing library             : libebml v1.3.7 + libmatroska v1.5.0

Video
ID                          : 1
Format                      : AVC
Format/Info                 : Advanced Video Codec
Format profile              : [email protected]
Format settings             : CABAC / 4 Ref Frames
Format settings, CABAC      : Yes
Format settings, Reference  : 4 frames
Codec ID                    : V_MPEG4/ISO/AVC
Duration                    : 2 h 1 min
Bit rate                    : 1 899 kb/s
Nominal bit rate            : 3 072 kb/s
Width                       : 1 920 pixels
Height                      : 1 080 pixels
Display aspect ratio        : 16:9
Frame rate mode             : Constant
Frame rate                  : 23.976 (24000/1001) FPS
Color space                 : YUV
Chroma subsampling          : 4:2:0
Bit depth                   : 8 bits
Scan type                   : Progressive
Bits/(Pixel*Frame)          : 0.038
Stream size                 : 1.62 GiB (83%)
Writing library             : x264 core 148
Encoding settings           : cabac=1 / ref=3 / deblock=1:0:0 / analyse=0x3:0x113 / me=hex / subme=7 / psy=1 / psy_rd=1.00:0.00 / mixed_ref=1 / me_range=16 / chroma_me=1 / trellis=1 / 8x8dct=1 / cqm=0 / deadzone=21,11 / fast_pskip=1 / chroma_qp_offset=-2 / threads=18 / lookahead_threads=3 / sliced_threads=0 / nr=0 / decimate=1 / interlaced=0 / bluray_compat=0 / constrained_intra=0 / bframes=3 / b_pyramid=2 / b_adapt=1 / b_bias=0 / direct=1 / weightb=1 / open_gop=0 / weightp=2 / keyint=75 / keyint_min=38 / scenecut=0 / intra_refresh=0 / rc_lookahead=40 / rc=cbr / mbtree=1 / bitrate=3072 / ratetol=1.0 / qcomp=0.60 / qpmin=0 / qpmax=69 / qpstep=4 / vbv_maxrate=3072 / vbv_bufsize=640 / nal_hrd=none / filler=0 / ip_ratio=1.40 / aq=1:1.00
Language                    : English
Default                     : Yes
Forced                      : No

Audio #1
ID                          : 2
Format                      : MPEG Audio
Format version              : Version 2
Format profile              : Layer 3
Format settings             : Joint stereo / MS Stereo
Codec ID                    : A_MPEG/L3
Codec ID/Hint               : MP3
Duration                    : 2 h 1 min
Bit rate mode               : Variable
Bit rate                    : 96.0 kb/s
Channel(s)                  : 2 channels
Sampling rate               : 16.0 kHz
Frame rate                  : 27.778 FPS (576 SPF)
Compression mode            : Lossy
Delay relative to video     : -83 ms
Stream size                 : 80.7 MiB (4%)
Writing library             : LAME3.99r
Encoding settings           : -m j -V 4 -q 3 -lowpass 8 --abr 96
Language                    : Telugu
Default                     : No
Forced                      : No

Audio #2
ID                          : 3
Format                      : MPEG Audio
Format version              : Version 1
Format profile              : Layer 3
Format settings             : Joint stereo / MS Stereo
Codec ID                    : A_MPEG/L3
Codec ID/Hint               : MP3
Duration                    : 2 h 1 min
Bit rate mode               : Variable
Bit rate                    : 96.0 kb/s
Channel(s)                  : 2 channels
Sampling rate               : 48.0 kHz
Frame rate                  : 41.667 FPS (1152 SPF)
Compression mode            : Lossy
Delay relative to video     : -83 ms
Stream size                 : 79.8 MiB (4%)
Writing library             : LAME3.99r
Encoding settings           : -m j -V 4 -q 3 -lowpass 15.1 --abr 96
Language                    : Tamil
Default                     : No
Forced                      : No

Audio #3
ID                          : 4
Format                      : MPEG Audio
Format version              : Version 1
Format profile              : Layer 3
Format settings             : Joint stereo / MS Stereo
Codec ID                    : A_MPEG/L3
Codec ID/Hint               : MP3
Duration                    : 2 h 1 min
Bit rate mode               : Variable
Bit rate                    : 91.3 kb/s
Nominal bit rate            : 96.0 kb/s
Channel(s)                  : 2 channels
Sampling rate               : 44.1 kHz
Frame rate                  : 38.281 FPS (1152 SPF)
Compression mode            : Lossy
Delay relative to video     : -83 ms
Stream size                 : 79.5 MiB (4%)
Writing library             : LAME3.99r
Encoding settings           : -m j -V 4 -q 3 -lowpass 15.1 --abr 96
Language                    : Hindi
Default                     : Yes
Forced                      : Yes

Audio #4
ID                          : 5
Format                      : AC-3
Format/Info                 : Audio Coding 3
Commercial name             : Dolby Digital
Codec ID                    : A_AC3
Duration                    : 2 h 1 min
Bit rate mode               : Constant
Bit rate                    : 96.0 kb/s
Channel(s)                  : 2 channels
Channel layout              : L R
Sampling rate               : 48.0 kHz
Frame rate                  : 31.250 FPS (1536 SPF)
Bit depth                   : 16 bits
Compression mode            : Lossy
Delay relative to video     : -83 ms
Stream size                 : 83.6 MiB (4%)
Language                    : English
Service kind                : Complete Main
Default                     : No
Forced                      : No

Text
ID                          : 6
Format                      : UTF-8
Codec ID                    : S_TEXT/UTF8
Codec ID/Info               : UTF-8 Plain Text
Duration                    : 1 h 55 min
Bit rate                    : 41 b/s
Count of elements           : 1347
Stream size                 : 34.9 KiB (0%)
Language                    : English
Default                     : Yes
Forced                      : No



Alita: Battle Angel (2019) 1080p HDRip x264 [Multi Line Audio][Hindi+Telugu+Tamil+Eng
Alita: Battle Angel (2019) 1080p HDRip x264 [Multi Line Audio][Hindi+Telugu+Tamil+Eng
Alita: Battle Angel (2019) 1080p HDRip x264 [Multi Line Audio][Hindi+Telugu+Tamil+Eng
Alita: Battle Angel (2019) 1080p HDRip x264 [Multi Line Audio][Hindi+Telugu+Tamil+Eng
Alita: Battle Angel (2019) 1080p HDRip x264 [Multi Line Audio][Hindi+Telugu+Tamil+Eng
Alita: Battle Angel (2019) 1080p HDRip x264 [Multi Line Audio][Hindi+Telugu+Tamil+Eng
SINGLE DIRECT FAST LINKS



https://www.heroupload.com/ebaacc086ee6d1a5/Alita.Battle.Angel.2019.HDRip.1080p.HQ.Line.Telugu+Tamil+Hindi+Eng.mkv




Buy Premium From My Links & Support Me

Теги: Alita

Dear visitor, you are browsing our website as Guest.
We strongly recommend you to register and login to view hidden contents.

Comments:

Add Comments