Set as default Homepage|Bookmark
 
 
» » Fantastic Beasts: The Crimes of Grindelwald (2018) BluRay 1080p x264 [Multi Audio]...
Advertise

Fantastic Beasts: The Crimes of Grindelwald (2018) BluRay 1080p x264 [Multi Audio]...

Author: wroser on 26-02-2019, 21:40
Fantastic Beasts: The Crimes of Grindelwald (2018) BluRay 1080p x264 [Multi Audio]...





ormat                                   : Matroska
Format version                           : Version 4
File size                                : 3.77 GiB
Duration                                 : 2 h 13 min
Overall bit rate                         : 4 037 kb/s
Encoded date                             : UTC 2019-02-26 17:55:59
Writing application                      : mkvmerge v29.0.0 ('Like It Or Not') 32-bit
Writing library                          : libebml v1.3.6 + libmatroska v1.4.9

Video
ID                                       : 1
Format                                   : AVC
Format/Info                              : Advanced Video Codec
Format profile                           : [email protected]
Format settings                          : CABAC / 5 Ref Frames
Format settings, CABAC                   : Yes
Format settings, RefFrames               : 5 frames
Codec ID                                 : V_MPEG4/ISO/AVC
Duration                                 : 2 h 13 min
Bit rate                                 : 2 500 kb/s
Width                                    : 1 920 pixels
Height                                   : 800 pixels
Display aspect ratio                     : 2.40:1
Frame rate mode                          : Constant
Frame rate                               : 23.976 (24000/1001) FPS
Color space                              : YUV
Chroma subsampling                       : 4:2:0
Bit depth                                : 8 bits
Scan type                                : Progressive
Bits/(Pixel*Frame)                       : 0.068
Stream size                              : 2.34 GiB (62%)
Writing library                          : x264 core 157 r2935 545de2f
Encoding settings                        : cabac=1 / ref=5 / deblock=1:-1:-1 / analyse=0x3:0x133 / me=umh / subme=9 / psy=1 / psy_rd=1.00:0.10 / mixed_ref=1 / me_range=24 / chroma_me=1 / trellis=2 / 8x8dct=1 / cqm=0 / deadzone=21,11 / fast_pskip=1 / chroma_qp_offset=-3 / threads=25 / lookahead_threads=2 / sliced_threads=0 / nr=0 / decimate=1 / interlaced=0 / bluray_compat=0 / constrained_intra=0 / bframes=3 / b_pyramid=2 / b_adapt=2 / b_bias=0 / direct=3 / weightb=1 / open_gop=0 / weightp=2 / keyint=250 / keyint_min=23 / scenecut=40 / intra_refresh=0 / rc_lookahead=60 / rc=2pass / mbtree=1 / bitrate=2500 / ratetol=1.0 / qcomp=0.60 / qpmin=0 / qpmax=69 / qpstep=4 / cplxblur=20.0 / qblur=0.5 / ip_ratio=1.40 / aq=1:1.00
Language                                 : English
Default                                  : Yes
Forced                                   : No

Audio #1
ID                                       : 2
Format                                   : AC-3
Format/Info                              : Audio Coding 3
Commercial name                          : Dolby Digital
Codec ID                                 : A_AC3
Duration                                 : 2 h 13 min
Bit rate mode                            : Constant
Bit rate                                 : 448 kb/s
Channel(s)                               : 6 channels
Channel layout                           : L R C LFE Ls Rs
Sampling rate                            : 44.1 kHz
Frame rate                               : 28.711 FPS (1536 SPF)
Bit depth                                : 16 bits
Compression mode                         : Lossy
Stream size                              : 429 MiB (11%)
Language                                 : Telugu
Service kind                             : Complete Main
Default                                  : No
Forced                                   : No

Audio #2
ID                                       : 3
Format                                   : AC-3
Format/Info                              : Audio Coding 3
Commercial name                          : Dolby Digital
Codec ID                                 : A_AC3
Duration                                 : 2 h 13 min
Bit rate mode                            : Constant
Bit rate                                 : 448 kb/s
Channel(s)                               : 6 channels
Channel layout                           : L R C LFE Ls Rs
Sampling rate                            : 44.1 kHz
Frame rate                               : 28.711 FPS (1536 SPF)
Bit depth                                : 16 bits
Compression mode                         : Lossy
Stream size                              : 429 MiB (11%)
Language                                 : Tamil
Service kind                             : Complete Main
Default                                  : No
Forced                                   : No

Audio #3
ID                                       : 4
Format                                   : AC-3
Format/Info                              : Audio Coding 3
Commercial name                          : Dolby Digital
Codec ID                                 : A_AC3
Duration                                 : 2 h 13 min
Bit rate mode                            : Constant
Bit rate                                 : 448 kb/s
Channel(s)                               : 6 channels
Channel layout                           : L R C LFE Ls Rs
Sampling rate                            : 48.0 kHz
Frame rate                               : 31.250 FPS (1536 SPF)
Bit depth                                : 16 bits
Compression mode                         : Lossy
Stream size                              : 429 MiB (11%)
Language                                 : Hindi
Service kind                             : Complete Main
Default                                  : Yes
Forced                                   : No

Audio #4
ID                                       : 5
Format                                   : AAC LC SBR
Format/Info                              : Advanced Audio Codec Low Complexity with Spectral Band Replication
Commercial name                          : HE-AAC
Format settings                          : Explicit
Codec ID                                 : A_AAC-2
Duration                                 : 2 h 13 min
Bit rate                                 : 192 kb/s
Channel(s)                               : 6 channels
Channel layout                           : C L R Ls Rs LFE
Sampling rate                            : 48.0 kHz
Frame rate                               : 23.438 FPS (2048 SPF)
Compression mode                         : Lossy
Delay relative to video                  : 43 ms
Stream size                              : 184 MiB (5%)
Language                                 : English
Default                                  : No
Forced                                   : No

Text
ID                                       : 6
Format                                   : UTF-8
Codec ID                                 : S_TEXT/UTF8
Codec ID/Info                            : UTF-8 Plain Text
Duration                                 : 2 h 13 min
Bit rate                                 : 43 b/s
Count of elements                        : 1506
Stream size                              : 42.6 KiB (0%)
Language                                 : English
Default                                  : Yes
Forced                                   : No

Menu
00:00:00.000                             : :Capítulo 01
00:07:15.310                             : :Capítulo 02
00:21:39.381                             : :Capítulo 03
00:32:56.850                             : :Capítulo 04
00:41:41.124                             : :Capítulo 05
00:50:26.190                             : :Capítulo 06
00:58:21.540                             : :Capítulo 07
01:12:02.860                             : :Capítulo 08
01:20:23.610                             : :Capítulo 09
01:34:50.059                             : :Capítulo 10
01:43:08.557                             : :Capítulo 11
01:51:42.237                             : :Capítulo 12
02:00:31.641                             : :Capítulo 13




Fantastic Beasts: The Crimes of Grindelwald (2018) BluRay 1080p x264 [Multi Audio]...Fantastic Beasts: The Crimes of Grindelwald (2018) BluRay 1080p x264 [Multi Audio]...Fantastic Beasts: The Crimes of Grindelwald (2018) BluRay 1080p x264 [Multi Audio]...Fantastic Beasts: The Crimes of Grindelwald (2018) BluRay 1080p x264 [Multi Audio]...Fantastic Beasts: The Crimes of Grindelwald (2018) BluRay 1080p x264 [Multi Audio]...


SINGLE DIRECT FAST LINKS

https://www.heroupload.com/9546a28173e8e554/Fantastic.Beasts.2.2018.BluRay.1080p.Original.DD5.1.Telugu+Tamil+Hindi+English.mkv


1GB LINKS


https://www.heroupload.com/860d97d11121e40b/Fantastic.Beasts.2.2018.BluRay.1080p.Original.DD5.1.Telugu+Tamil+Hindi+English.part1.rar
https://www.heroupload.com/32c5256b81586f48/Fantastic.Beasts.2.2018.BluRay.1080p.Original.DD5.1.Telugu+Tamil+Hindi+English.part2.rar
https://www.heroupload.com/60e1be4398c34702/Fantastic.Beasts.2.2018.BluRay.1080p.Original.DD5.1.Telugu+Tamil+Hindi+English.part3.rar
https://www.heroupload.com/bded4e31de59659a/Fantastic.Beasts.2.2018.BluRay.1080p.Original.DD5.1.Telugu+Tamil+Hindi+English.part4.rar


Buy Premium From My Links & Support Me

Теги: Fantastic

Dear visitor, you are browsing our website as Guest.
We strongly recommend you to register and login to view hidden contents.

Comments:

Add Comments