Set as default Homepage|Bookmark
 
 
» » Venom (2018) 1080p BluRay x264 DD5.1 [Original Multi Audios][Hindi+Telugu+Tamil+Eng]
Advertise

Venom (2018) 1080p BluRay x264 DD5.1 [Original Multi Audios][Hindi+Telugu+Tamil+Eng]

Author: wroser on 3-01-2019, 21:30
Venom (2018) 1080p BluRay x264 DD5.1 [Original Multi Audios][Hindi+Telugu+Tamil+Eng]





Format                                   : Matroska
Format version                           : Version 4
File size                                : 3.69 GiB
Duration                                 : 1 h 52 min
Overall bit rate                         : 4 715 kb/s
Encoded date                             : UTC 2019-01-03 20:14:18
Writing application                      : mkvmerge v29.0.0 ('Like It Or Not') 32-bit
Writing library                          : libebml v1.3.6 + libmatroska v1.4.9

Video
ID                                       : 1
Format                                   : AVC
Format/Info                              : Advanced Video Codec
Format profile                           : [email protected]
Format settings                          : CABAC / 5 Ref Frames
Format settings, CABAC                   : Yes
Format settings, RefFrames               : 5 frames
Codec ID                                 : V_MPEG4/ISO/AVC
Duration                                 : 1 h 52 min
Bit rate                                 : 2 600 kb/s
Width                                    : 1 920 pixels
Height                                   : 800 pixels
Display aspect ratio                     : 2.40:1
Frame rate mode                          : Constant
Frame rate                               : 23.976 (24000/1001) FPS
Color space                              : YUV
Chroma subsampling                       : 4:2:0
Bit depth                                : 8 bits
Scan type                                : Progressive
Bits/(Pixel*Frame)                       : 0.071
Stream size                              : 2.04 GiB (55%)
Writing library                          : x264 core 155 r2893 b00bcaf
Encoding settings                        : cabac=1 / ref=5 / deblock=1:0:0 / analyse=0x3:0x133 / me=umh / subme=9 / psy=1 / psy_rd=1.00:0.00 / mixed_ref=1 / me_range=16 / chroma_me=1 / trellis=2 / 8x8dct=1 / cqm=0 / deadzone=21,11 / fast_pskip=1 / chroma_qp_offset=-2 / threads=25 / lookahead_threads=2 / sliced_threads=0 / nr=0 / decimate=1 / interlaced=0 / bluray_compat=0 / constrained_intra=0 / bframes=3 / b_pyramid=2 / b_adapt=2 / b_bias=0 / direct=3 / weightb=1 / open_gop=0 / weightp=2 / keyint=240 / keyint_min=24 / scenecut=40 / intra_refresh=0 / rc_lookahead=60 / rc=2pass / mbtree=1 / bitrate=2600 / ratetol=1.0 / qcomp=0.60 / qpmin=0 / qpmax=69 / qpstep=4 / cplxblur=20.0 / qblur=0.5 / vbv_maxrate=62500 / vbv_bufsize=78125 / nal_hrd=none / filler=0 / ip_ratio=1.40 / aq=1:1.00
Language                                 : English
Default                                  : Yes
Forced                                   : No
Color range                              : Limited
Color primaries                          : BT.709
Transfer characteristics                 : BT.709
Matrix coefficients                      : BT.709

Audio #1
ID                                       : 2
Format                                   : AC-3
Format/Info                              : Audio Coding 3
Commercial name                          : Dolby Digital
Codec ID                                 : A_AC3
Duration                                 : 1 h 52 min
Bit rate mode                            : Constant
Bit rate                                 : 640 kb/s
Channel(s)                               : 6 channels
Channel layout                           : L R C LFE Ls Rs
Sampling rate                            : 44.1 kHz
Frame rate                               : 28.711 FPS (1536 SPF)
Bit depth                                : 16 bits
Compression mode                         : Lossy
Stream size                              : 513 MiB (14%)
Language                                 : Telugu
Service kind                             : Complete Main
Default                                  : Yes
Forced                                   : No

Audio #2
ID                                       : 3
Format                                   : AC-3
Format/Info                              : Audio Coding 3
Commercial name                          : Dolby Digital
Codec ID                                 : A_AC3
Duration                                 : 1 h 52 min
Bit rate mode                            : Constant
Bit rate                                 : 640 kb/s
Channel(s)                               : 6 channels
Channel layout                           : L R C LFE Ls Rs
Sampling rate                            : 44.1 kHz
Frame rate                               : 28.711 FPS (1536 SPF)
Bit depth                                : 16 bits
Compression mode                         : Lossy
Stream size                              : 513 MiB (14%)
Language                                 : Tamil
Service kind                             : Complete Main
Default                                  : No
Forced                                   : No

Audio #3
ID                                       : 4
Format                                   : AC-3
Format/Info                              : Audio Coding 3
Commercial name                          : Dolby Digital
Codec ID                                 : A_AC3
Duration                                 : 1 h 52 min
Bit rate mode                            : Constant
Bit rate                                 : 640 kb/s
Channel(s)                               : 6 channels
Channel layout                           : L R C LFE Ls Rs
Sampling rate                            : 44.1 kHz
Frame rate                               : 28.711 FPS (1536 SPF)
Bit depth                                : 16 bits
Compression mode                         : Lossy
Stream size                              : 513 MiB (14%)
Language                                 : Hindi
Service kind                             : Complete Main
Default                                  : No
Forced                                   : No

Audio #4
ID                                       : 5
Format                                   : AAC LC SBR
Format/Info                              : Advanced Audio Codec Low Complexity with Spectral Band Replication
Commercial name                          : HE-AAC
Format settings                          : Explicit
Codec ID                                 : A_AAC-2
Duration                                 : 1 h 52 min
Bit rate                                 : 192 kb/s
Channel(s)                               : 6 channels
Channel layout                           : C L R Ls Rs LFE
Sampling rate                            : 48.0 kHz
Frame rate                               : 23.438 FPS (2048 SPF)
Compression mode                         : Lossy
Delay relative to video                  : 31 ms
Stream size                              : 154 MiB (4%)
Language                                 : English
Default                                  : No
Forced                                   : No

Text #1
ID                                       : 6
Format                                   : UTF-8
Codec ID                                 : S_TEXT/UTF8
Codec ID/Info                            : UTF-8 Plain Text
Duration                                 : 1 h 34 min
Bit rate                                 : 63 b/s
Count of elements                        : 1399
Stream size                              : 44.0 KiB (0%)
Language                                 : English
Default                                  : Yes
Forced                                   : No

Text #2
ID                                       : 7
Format                                   : UTF-8
Codec ID                                 : S_TEXT/UTF8
Codec ID/Info                            : UTF-8 Plain Text
Duration                                 : 1 h 34 min
Bit rate                                 : 64 b/s
Count of elements                        : 1362
Stream size                              : 44.7 KiB (0%)
Language                                 : English
Default                                  : No
Forced                                   : No

Menu
00:00:00.000                             : :Chapter 1
00:09:59.599                             : :Chapter 2
00:14:59.941                             : :Chapter 3
00:19:59.198                             : :Chapter 4
00:25:00.499                             : :Chapter 5
00:29:59.840                             : :Chapter 6
00:35:00.098                             : :Chapter 7
00:39:59.522                             : :Chapter 8
00:44:59.780                             : :Chapter 9
00:50:01.165                             : :Chapter 10
00:55:00.297                             : :Chapter 11
00:59:59.596                             : :Chapter 12
01:06:15.972                             : :Chapter 13
01:14:17.453                             : :Chapter 14
01:24:35.070                             : :Chapter 15
01:33:32.690                             : :Chapter 16
01:40:39.075                             : :Chapter 17
01:47:17.473                             : :Chapter 18



Venom (2018) 1080p BluRay x264 DD5.1 [Original Multi Audios][Hindi+Telugu+Tamil+Eng]Venom (2018) 1080p BluRay x264 DD5.1 [Original Multi Audios][Hindi+Telugu+Tamil+Eng]Venom (2018) 1080p BluRay x264 DD5.1 [Original Multi Audios][Hindi+Telugu+Tamil+Eng]Venom (2018) 1080p BluRay x264 DD5.1 [Original Multi Audios][Hindi+Telugu+Tamil+Eng]Venom (2018) 1080p BluRay x264 DD5.1 [Original Multi Audios][Hindi+Telugu+Tamil+Eng]


SINGLE DIRECT FAST LINKS

https://www.heroupload.com/a8cfcd3c007b595f/Venom.2018.BluRay.1080p.DD5.1.Original.Telugu+Tamil+Hindi+Eng.mkv


1GB LINKS


https://www.heroupload.com/8276b7ed6a5d6ee2/Venom.2018.BluRay.1080p.DD5.1.Original.Telugu+Tamil+Hindi+Eng.part1.rar
https://www.heroupload.com/78e8e4c94b124590/Venom.2018.BluRay.1080p.DD5.1.Original.Telugu+Tamil+Hindi+Eng.part2.rar
https://www.heroupload.com/3e60ecce65abe5d7/Venom.2018.BluRay.1080p.DD5.1.Original.Telugu+Tamil+Hindi+Eng.part3.rar
https://www.heroupload.com/ee7b6877f872c3de/Venom.2018.BluRay.1080p.DD5.1.Original.Telugu+Tamil+Hindi+Eng.part4.rar


Buy Premium From My Links & Support Me

Теги: Venom

Dear visitor, you are browsing our website as Guest.
We strongly recommend you to register and login to view hidden contents.

Comments:

Add Comments