Set as default Homepage|Bookmark
 
 
» » The Good Dinosaur (2015) 1080p BluRay x264 [Dual Audio] [Hindi+English] HHD-Exclusive
Advertise

The Good Dinosaur (2015) 1080p BluRay x264 [Dual Audio] [Hindi+English] HHD-Exclusive

Author: wroser on 6-02-2017, 21:26
The Good Dinosaur (2015) 1080p BluRay x264 [Dual Audio] [Hindi+English] HHD-Exclusive






No Tag in Audio Enjoy

Format                                   : Matroska
Format version                           : Version 4 / Version 2
File size                                : 4.40 GiB
Duration                                 : 1h 33mn
Overall bit rate                         : 6 727 Kbps
Movie name                               : Hon3yHD

Video
ID                                       : 1
Format                                   : AVC
Format/Info                              : Advanced Video Codec
Format profile                           : [email protected]
Format settings, CABAC                   : Yes
Format settings, ReFrames                : 5 frames
Codec ID                                 : V_MPEG4/ISO/AVC
Duration                                 : 1h 33mn
Bit rate                                 : 5 800 Kbps
Width                                    : 1 920 pixels
Height                                   : 800 pixels
Display aspect ratio                     : 2.40:1
Frame rate mode                          : Constant
Frame rate                               : 23.976 fps
Color space                              : YUV
Chroma subsampling                       : 4:2:0
Bit depth                                : 8 bits
Scan type                                : Progressive
Bits/(Pixel*Frame)                       : 0.157
Stream size                              : 3.73 GiB (85%)
Title                                    : W3apoN-X...Hon3yHD

Hindi Audios Credits :David call - Thanks Bro

Synched by: W3apoN-X(R3al_Star)

Audio #1
ID                                       : 2
Format                                   : AC-3
Format/Info                              : Audio Coding 3
Mode extension                           : CM (complete main)
Format settings, Endianness              : Big
Codec ID                                 : A_AC3
Duration                                 : 1h 33mn
Bit rate mode                            : Constant
Bit rate                                 : 448 Kbps
Channel(s)                               : 2 channels
Channel positions                        : Front: L R
Sampling rate                            : 48.0 KHz
Bit depth                                : 16 bits
Compression mode                         : Lossy
Stream size                              : 300 MiB (7%)
Title                                    :  [Hindi] Dolby Digital 2.0 448Kbps---W3apoN-X...Hon3yHD
Language                                 : Hindi
Default                                  : Yes
Forced                                   : Yes

Audio #2
ID                                       : 3
Format                                   : AC-3
Format/Info                              : Audio Coding 3
Mode extension                           : CM (complete main)
Format settings, Endianness              : Big
Codec ID                                 : A_AC3
Duration                                 : 1h 33mn
Bit rate mode                            : Constant
Bit rate                                 : 448 Kbps
Channel(s)                               : 6 channels
Channel positions                        : Front: L C R, Side: L R, LFE
Sampling rate                            : 48.0 KHz
Bit depth                                : 16 bits
Compression mode                         : Lossy
Stream size                              : 300 MiB (7%)
Title                                    : English Dolby Digital 5.1 448Kbps---W3apoN-X...Hon3yHD
Language                                 : English
Default                                  : No
Forced                                   : No

Text #1
ID                                       : 4
Format                                   : PGS
Muxing mode                              : zlib
Codec ID                                 : S_HDMV/PGS
Codec ID/Info                            : Picture based subtitle format used on BDs/HD-DVDs
Title                                    : Hon3yHD
Default                                  : No
Forced                                   : Yes

Text #2
ID                                       : 5
Format                                   : PGS
Muxing mode                              : zlib
Codec ID                                 : S_HDMV/PGS
Codec ID/Info                            : Picture based subtitle format used on BDs/HD-DVDs
Title                                    : English---W3apoN-X...Hon3yHD
Language                                 : English
Default                                  : No
Forced                                   : No

Text #3
ID                                       : 6
Format                                   : PGS
Muxing mode                              : zlib
Codec ID                                 : S_HDMV/PGS
Codec ID/Info                            : Picture based subtitle format used on BDs/HD-DVDs
Title                                    : English---W3apoN-X...Hon3yHD
Language                                 : English
Default                                  : No
Forced                                   : No




The Good Dinosaur (2015) 1080p BluRay x264 [Dual Audio] [Hindi+English] HHD-Exclusive
The Good Dinosaur (2015) 1080p BluRay x264 [Dual Audio] [Hindi+English] HHD-Exclusive
The Good Dinosaur (2015) 1080p BluRay x264 [Dual Audio] [Hindi+English] HHD-Exclusive
The Good Dinosaur (2015) 1080p BluRay x264 [Dual Audio] [Hindi+English] HHD-Exclusive
The Good Dinosaur (2015) 1080p BluRay x264 [Dual Audio] [Hindi+English] HHD-Exclusive
The Good Dinosaur (2015) 1080p BluRay x264 [Dual Audio] [Hindi+English] HHD-Exclusive
The Good Dinosaur (2015) 1080p BluRay x264 [Dual Audio] [Hindi+English] HHD-Exclusive
The Good Dinosaur (2015) 1080p BluRay x264 [Dual Audio] [Hindi+English] HHD-ExclusiveThe Good Dinosaur (2015) 1080p BluRay x264 [Dual Audio] [Hindi+English] HHD-Exclusive

[B] SINGLE DIRECT FAST LINKS[/B]

http://www.heroupload.com/839af13000146a1e/The.Good.Dinosaur.2015.1080p.BluRay.x264.Dual-Audio.Hindi.2.0.English.5.1-HHD.mkv


[B]1GB LINKS[/B]


http://www.heroupload.com/2525c16ba3e0f23d/The.Good.Dinosaur.2015.1080p.BluRay.x264.Dual-Audio.Hindi.2.0.English.5.1-HHD.mkv.001
http://www.heroupload.com/21e3029b9febfd39/The.Good.Dinosaur.2015.1080p.BluRay.x264.Dual-Audio.Hindi.2.0.English.5.1-HHD.mkv.002
http://www.heroupload.com/38eebb6756df3bfe/The.Good.Dinosaur.2015.1080p.BluRay.x264.Dual-Audio.Hindi.2.0.English.5.1-HHD.mkv.003
http://www.heroupload.com/60de7b0689e20844/The.Good.Dinosaur.2015.1080p.BluRay.x264.Dual-Audio.Hindi.2.0.English.5.1-HHD.mkv.004
http://www.heroupload.com/d17eb69dbe7e2e0d/The.Good.Dinosaur.2015.1080p.BluRay.x264.Dual-Audio.Hindi.2.0.English.5.1-HHD.mkv.005




Dear visitor, you are browsing our website as Guest.
We strongly recommend you to register and login to view hidden contents.

Comments:

Add Comments