Set as default Homepage|Bookmark
 
 
» page 3706
Advertise
Sort articles by: Date | Most Rates | Most Views | Comments | Alphabet

Almost Adults (2016) 1080p WEB-DL DD5.1 H264-FGT

Author: wroser on 7-02-2017, 15:09


Almost Adults (2016) 1080p WEB-DL DD5.1 H264-FGT



http://imdb.com/title/tt4686862/

Video
ID                                       : 1
Format                                   : AVC
Format/Info                              : Advanced Video Codec
Format profile                           : [email protected]
Format settings, CABAC                   : Yes
Format settings, ReFrames                : 4 frames
Codec ID                                 : V_MPEG4/ISO/AVC
Duration                                 : 1h 29mn
Bit rate                                 : 5 106 Kbps
Width                                    : 1 904 pixels
Height                                   : 1 028 pixels
Display aspect ratio                     : 1.85:1
Frame rate mode                          : Constant
Frame rate                               : 23.976 fps
Color space                              : YUV
Chroma subsampling                       : 4:2:0
Bit depth                                : 8 bits
Scan type                                : Progressive
Bits/(Pixel*Frame)                       : 0.109
Stream size                              : 3.21 GiB (91%)
Title                                    : Almost.Adults.2016.1080p.WEB-DL.DD5.1.H264-FGT
Language                                 : English
Default                                  : Yes
Forced                                   : No
Color range                              : Limited
Color primaries                          : BT.709
Transfer characteristics                 : BT.709
Matrix coefficients                      : BT.709

Audio
ID                                       : 2
Format                                   : AC-3
Format/Info                              : Audio Coding 3
Mode extension                           : CM (complete main)
Format settings, Endianness              : Big
Codec ID                                 : A_AC3
Duration                                 : 1h 29mn
Bit rate mode                            : Constant
Bit rate                                 : 384 Kbps
Channel(s)                               : 6 channels
Channel positions                        : Front: L C R, Side: L R, LFE
Sampling rate                            : 48.0 KHz
Frame rate                               : 31.250 fps (1536 spf)
Compression mode                         : Lossy
Stream size                              : 247 MiB (7%)
Title                                    : Almost.Adults.2016.1080p.WEB-DL.DD5.1.H264-FGT
Language                                 : English
Default                                  : Yes
Forced                                   : No

Text
ID                                       : 3
Format                                   : UTF-8
Codec ID                                 : S_TEXT/UTF8
Codec ID/Info                            : UTF-8 Plain Text
Language                                 : English
Default                                  : Yes
Forced                                   : No




Almost Adults (2016) 1080p WEB-DL DD5.1 H264-FGT
[B] SINGLE DIRECT FAST LINKS[/B]

http://www.heroupload.com/a2acfb3cbeb1f875/Almost.Adults.2016.1080p.WEB-DL.DD5.1.H264-FGT.mkv


[B]1GB LINKS[/B]


http://www.heroupload.com/ea9ac8995e1cb605/Almost.Adults.2016.1080p.WEB-DL.DD5.1.H264-FGT.part1.rar
http://www.heroupload.com/db8a06b6c164382c/Almost.Adults.2016.1080p.WEB-DL.DD5.1.H264-FGT.part2.rar
http://www.heroupload.com/318e9f2ccee7a1ea/Almost.Adults.2016.1080p.WEB-DL.DD5.1.H264-FGT.part3.rar
http://www.heroupload.com/3f7cc5c611299584/Almost.Adults.2016.1080p.WEB-DL.DD5.1.H264-FGT.part4.rar





[/CENTER]