Set as default Homepage|Bookmark
 
 
» » Nanak Shah Fakir (2014) Punjabi - 720p - WEB-HD - AVC - AAC 2.0-Team Jio Exclusive
Advertise

Nanak Shah Fakir (2014) Punjabi - 720p - WEB-HD - AVC - AAC 2.0-Team Jio Exclusive

Author: wroser on 24-07-2018, 16:02
Nanak Shah Fakir (2014) Punjabi - 720p - WEB-HD - AVC - AAC 2.0-Team Jio Exclusive




Format                      : MPEG-4
Format profile              : Base Media
Codec ID                    : isom (isom/iso2/avc1/mp41)
File size                   : 1.16 GiB
Duration                    : 2 h 17 min
Overall bit rate            : 1 210 kb/s
Movie name                  : Nanak Shah Fakir
Performer                   : Unknown
Genre                       : Bollywood
Description                 : Nanak Shah Fakir is named after and on the life and teachings of Guru Nanak, the founder of the Sikh
Recorded date               : UTC 2018-04-13 07:00:00
Writing application         : Lavf58.12.100
LongDescription             : Nanak Shah Fakir is named after and on the life and teachings of Guru Nanak, the founder of the Sikh faith in India. Born in AD 1469, Guru Nanak traveled the world to spread the essence of 'Ik Onkar' (there's but One God) as a philosophy, establishing 'Sikhism' as a way of life. Keeping in with the tradition, Guru Nanak has been portrayed through computer graphics, from the back and amidst a ray of light.

Video
ID                          : 1
Format                      : AVC
Format/Info                 : Advanced Video Codec
Format profile              : High@L3.1
Format settings, CABAC      : Yes
Format settings, RefFrames  : 4 frames
Codec ID                    : avc1
Codec ID/Info               : Advanced Video Coding
Duration                    : 2 h 17 min
Bit rate                    : 1 136 kb/s
Width                       : 1 280 pixels
Height                      : 538 pixels
Display aspect ratio        : 2.40:1
Original display aspect rat : 2.40:1
Frame rate mode             : Constant
Frame rate                  : 25.000 FPS
Color space                 : YUV
Chroma subsampling          : 4:2:0
Bit depth                   : 8 bits
Scan type                   : Progressive
Bits/(Pixel*Frame)          : 0.066
Stream size                 : 1.08 GiB (93%)
Writing library             : x264 core 148 r2643 5c65704
Encoding settings           : cabac=1 / ref=1 / deblock=1:0:0 / analyse=0x3:0x3 / me=dia / subme=1 / psy=1 / psy_rd=1.00:0.00 / mixed_ref=0 / me_range=16 / chroma_me=1 / trellis=0 / 8x8dct=1 / cqm=0 / deadzone=21,11 / fast_pskip=1 / chroma_qp_offset=0 / threads=12 / lookahead_threads=2 / sliced_threads=0 / nr=0 / decimate=1 / interlaced=0 / bluray_compat=0 / constrained_intra=0 / bframes=3 / b_pyramid=2 / b_adapt=1 / b_bias=0 / direct=1 / weightb=1 / open_gop=0 / weightp=1 / keyint=250 / keyint_min=25 / scenecut=40 / intra_refresh=0 / rc=abr / mbtree=0 / bitrate=1136 / ratetol=1.0 / qcomp=0.60 / qpmin=0 / qpmax=69 / qpstep=4 / ip_ratio=1.40 / pb_ratio=1.30 / aq=1:1.00
Menus                       : 3

Audio
ID                          : 2
Format                      : AAC
Format/Info                 : Advanced Audio Codec
Format profile              : LC
Codec ID                    : 40
Duration                    : 2 h 17 min
Duration_LastFrame          : -18 ms
Bit rate mode               : Constant
Bit rate                    : 80.0 kb/s
Channel(s)                  : 2 channels
Channel(s)_Original         : 1 channel
Channel positions           : Front: C
Sampling rate               : 44.1 kHz
Frame rate                  : 43.066 FPS (1024 SPF)
Compression mode            : Lossy
Stream size                 : 78.6 MiB (7%)
Language                    : Hindi
Default                     : Yes
Alternate group             : 1
Menus                       : 3

Menu #1
ID                          : 3
Codec ID                    : text
Duration                    : 2 h 17 min
Language                    : English
Menu For                    : 1,2
00:00:00.000                : 1
00:04:30.875                : 2
00:17:07.333                : 3
00:57:27.917                : 4
01:04:34.833                : 5
01:10:04.292                : 6
01:43:38.292                : 7
01:49:02.708                : 8
01:56:24.417                : 9
02:07:27.500                : 10
Bit rate mode               : VBR

Menu #2
00:00:00.000                : 1
00:04:30.875                : 2
00:17:07.333                : 3
00:57:27.917                : 4
01:04:34.833                : 5
01:10:04.292                : 6
01:43:38.292                : 7
01:49:02.708                : 8
01:56:24.417                : 9
02:07:27.500                : 10


Nanak Shah Fakir (2014) Punjabi - 720p - WEB-HD - AVC - AAC 2.0-Team Jio ExclusiveNanak Shah Fakir (2014) Punjabi - 720p - WEB-HD - AVC - AAC 2.0-Team Jio ExclusiveNanak Shah Fakir (2014) Punjabi - 720p - WEB-HD - AVC - AAC 2.0-Team Jio ExclusiveNanak Shah Fakir (2014) Punjabi - 720p - WEB-HD - AVC - AAC 2.0-Team Jio ExclusiveNanak Shah Fakir (2014) Punjabi - 720p - WEB-HD - AVC - AAC 2.0-Team Jio ExclusiveNanak Shah Fakir (2014) Punjabi - 720p - WEB-HD - AVC - AAC 2.0-Team Jio Exclusive

SINGLE DIRECT FAST LINKS

http://www.heroupload.us/850ba731e6298af5/Nanak.Shah.Fakir.Punjabi.x264.720p.HD-DL.AVC-Team.Jio.Exclusive.mp4



http://filefloater.com/2zTx/Nanak.Shah.Fakir.Punjabi.x264.720p.HD-DL.AVC-Team.Jio.Exclusive.mp4




Buy Premium From My Links & Support Me

Теги: Nanak

Dear visitor, you are browsing our website as Guest.
We strongly recommend you to register and login to view hidden contents.

Comments:

Add Comments
Reply
  • Group: Members
  • ICQ:
  • Registration: 15.10.2018
  • Status: Currently Offline
  • 11 Comment
  • 0 Article
^
I watched this movie from USa. with my Tactical backpack for travel time.

--------------------