Set as default Homepage|Bookmark
 
 
» » Lights Out (2016) 720p BluRay x264 ESub [Multi Audios][Hindi+Telugu+Tamil+English]
Advertise

Lights Out (2016) 720p BluRay x264 ESub [Multi Audios][Hindi+Telugu+Tamil+English]

Author: wroser on 1-07-2018, 06:38
Lights Out (2016) 720p BluRay x264 ESub [Multi Audios][Hindi+Telugu+Tamil+English]





General
Format                      : Matroska
Format version              : Version 4 / Version 2
File size                   : 759 MiB
Duration                    : 1 h 20 min
Overall bit rate mode       : Variable
Overall bit rate            : 1 311 kb/s
Encoded date                : UTC 2018-06-30 11:16:49
Writing application         : mkvmerge v7.1.0 ('Good Love') 32bit built on Jul 27 2014 12:59:18
Writing library             : libebml v1.3.0 + libmatroska v1.4.1

Video
ID                          : 1
Format                      : AVC
Format/Info                 : Advanced Video Codec
Format profile              : High@L4.1
Format settings, CABAC      : Yes
Format settings, RefFrames  : 4 frames
Codec ID                    : V_MPEG4/ISO/AVC
Duration                    : 1 h 20 min
Bit rate                    : 900 kb/s
Width                       : 1 280 pixels
Height                      : 534 pixels
Display aspect ratio        : 2.40:1
Original display aspect rat : 2.40:1
Frame rate mode             : Constant
Frame rate                  : 23.976 FPS
Color space                 : YUV
Chroma subsampling          : 4:2:0
Bit depth                   : 8 bits
Scan type                   : Progressive
Bits/(Pixel*Frame)          : 0.055
Stream size                 : 521 MiB (69%)
Writing library             : x264 core 148
Encoding settings           : cabac=1 / ref=4 / deblock=1:-1:-1 / analyse=0x3:0x133 / me=umh / subme=9 / psy=1 / psy_rd=1.00:0.15 / mixed_ref=1 / me_range=24 / chroma_me=1 / trellis=2 / 8x8dct=1 / cqm=0 / deadzone=21,11 / fast_pskip=0 / chroma_qp_offset=-3 / threads=12 / lookahead_threads=1 / sliced_threads=0 / nr=0 / decimate=1 / interlaced=0 / bluray_compat=0 / constrained_intra=0 / bframes=3 / b_pyramid=2 / b_adapt=2 / b_bias=0 / direct=3 / weightb=1 / open_gop=0 / weightp=2 / keyint=250 / keyint_min=23 / scenecut=40 / intra_refresh=0 / rc_lookahead=60 / rc=2pass / mbtree=1 / bitrate=900 / ratetol=1.0 / qcomp=0.60 / qpmin=0 / qpmax=69 / qpstep=4 / cplxblur=20.0 / qblur=0.5 / vbv_maxrate=31250 / vbv_bufsize=31250 / nal_hrd=none / filler=0 / ip_ratio=1.40 / aq=1:1.00
Language                    : English
Default                     : Yes
Forced                      : No

Audio #1
ID                          : 2
Format                      : MPEG Audio
Format version              : Version 1
Format profile              : Layer 3
Mode                        : Joint stereo
Mode extension              : MS Stereo
Codec ID                    : A_MPEG/L3
Codec ID/Hint               : MP3
Duration                    : 1 h 20 min
Bit rate mode               : Variable
Bit rate                    : 96.0 kb/s
Channel(s)                  : 2 channels
Sampling rate               : 44.1 kHz
Frame rate                  : 38.281 FPS (1152 SPF)
Compression mode            : Lossy
Delay relative to video     : -43 ms
Stream size                 : 54.7 MiB (7%)
Writing library             : LAME3.99r
Encoding settings           : -m j -V 4 -q 3 -lowpass 15.1 --abr 96
Language                    : Telugu
Default                     : Yes
Forced                      : No

Audio #2
ID                          : 3
Format                      : MPEG Audio
Format version              : Version 1
Format profile              : Layer 3
Mode                        : Joint stereo
Mode extension              : MS Stereo
Codec ID                    : A_MPEG/L3
Codec ID/Hint               : MP3
Duration                    : 1 h 20 min
Bit rate mode               : Variable
Bit rate                    : 96.0 kb/s
Channel(s)                  : 2 channels
Sampling rate               : 44.1 kHz
Frame rate                  : 38.281 FPS (1152 SPF)
Compression mode            : Lossy
Delay relative to video     : -43 ms
Stream size                 : 53.7 MiB (7%)
Writing library             : LAME3.99r
Encoding settings           : -m j -V 4 -q 3 -lowpass 15.1 --abr 96
Language                    : Tamil
Default                     : No
Forced                      : No

Audio #3
ID                          : 4
Format                      : MPEG Audio
Format version              : Version 1
Format profile              : Layer 3
Mode                        : Joint stereo
Mode extension              : MS Stereo
Codec ID                    : A_MPEG/L3
Codec ID/Hint               : MP3
Duration                    : 1 h 20 min
Bit rate mode               : Variable
Bit rate                    : 91.3 kb/s
Nominal bit rate            : 96.0 kb/s
Channel(s)                  : 2 channels
Sampling rate               : 44.1 kHz
Frame rate                  : 38.281 FPS (1152 SPF)
Compression mode            : Lossy
Delay relative to video     : -43 ms
Stream size                 : 52.9 MiB (7%)
Writing library             : LAME3.99r
Encoding settings           : -m j -V 4 -q 3 -lowpass 15.1 --abr 96
Language                    : Hindi
Default                     : No
Forced                      : No

Audio #4
ID                          : 5
Format                      : AAC
Format/Info                 : Advanced Audio Codec
Format profile              : LC
Codec ID                    : A_AAC
Duration                    : 1 h 20 min
Bit rate                    : 128 kb/s
Channel(s)                  : 2 channels
Channel positions           : Front: L R
Sampling rate               : 48.0 kHz
Frame rate                  : 46.875 FPS (1024 SPF)
Compression mode            : Lossy
Delay relative to video     : -43 ms
Stream size                 : 74.4 MiB (10%)
Language                    : English
Default                     : No
Forced                      : No

Text
ID                          : 6
Format                      : UTF-8
Codec ID                    : S_TEXT/UTF8
Codec ID/Info               : UTF-8 Plain Text
Duration                    : 1 h 15 min
Bit rate                    : 42 b/s
Count of elements           : 965
Stream size                 : 23.2 KiB (0%)
Language                    : English
Default                     : Yes
Forced                      : No



Lights Out (2016) 720p BluRay x264 ESub [Multi Audios][Hindi+Telugu+Tamil+English]Lights Out (2016) 720p BluRay x264 ESub [Multi Audios][Hindi+Telugu+Tamil+English]Lights Out (2016) 720p BluRay x264 ESub [Multi Audios][Hindi+Telugu+Tamil+English]Lights Out (2016) 720p BluRay x264 ESub [Multi Audios][Hindi+Telugu+Tamil+English]Lights Out (2016) 720p BluRay x264 ESub [Multi Audios][Hindi+Telugu+Tamil+English]Lights Out (2016) 720p BluRay x264 ESub [Multi Audios][Hindi+Telugu+Tamil+English]


SINGLE DIRECT FAST LINKS

http://www.heroupload.us/27089d53c4ed6422/Lights.Out.2016.BluRay.720p.Telugu+Tamil+Hindi+English.mkv



http://filefloater.com/1jyw/Lights.Out.2016.BluRay.720p.Telugu+Tamil+Hindi+English.mkv




Теги: Lights

Dear visitor, you are browsing our website as Guest.
We strongly recommend you to register and login to view hidden contents.

Comments:

Add Comments
Reply
  • Group: Members
  • ICQ:
  • Registration: 13.06.2018
  • Status: Currently Offline
  • 274 Comments
  • 0 Article
^
You delivered such an impressive piece to read, giving every subject enlightenment for us to gain information. Thanks for sharing such information with us due to which my several concepts have been cleared. Capital Gains Tax Advice Brighton Accountants
Reply
  • Group: Guests
  • ICQ:
  • Registration: --
  • Status:
  • 0 Comment
  • 0 Article
^
Simply this site is likely to irrefutably quite possibly possibly be renowned affecting quite a few information sites person's, to help it is conscientious content pieces or it could be viewpoints. Lending Marketing
Reply
  • susan

  • 21 November 2018 07:21
  • Group: Guests
  • ICQ:
  • Registration: --
  • Status:
  • 0 Comment
  • 0 Article
^
Right away this website will probably unquestionably usually become well known with regards to most of website customers, as a result of meticulous accounts and in addition tests. Hi pod
Reply
  • Group: Guests
  • ICQ:
  • Registration: --
  • Status:
  • 0 Comment
  • 0 Article
^
I want many of the reviews, Choose truly loved, We would like addiitional info over it, since it is actually fairly superb., Relation simply for saying. outplacement support UK
Reply
  • Group: Guests
  • ICQ:
  • Registration: --
  • Status:
  • 0 Comment
  • 0 Article
^
What a good blog you have here. Please update it more often. This topics is my interest. Thank you. . .
تشریفات مجالس ترحیم مشهد

You have raised an important issue..Thanks for sharing..I would like to read more current affairs from this blog..keep posting..
بافت مردانه
Reply
  • Group: Guests
  • ICQ:
  • Registration: --
  • Status:
  • 0 Comment
  • 0 Article
^
What a good blog you have here. Please update it more often. This topics is my interest. Thank you. . .
https://telegra.ph/The-Anatomy-Of-BEST-WORDPRESS-SECURITY-PLUGIN-2018-01-32
Reply
  • Group: Guests
  • ICQ:
  • Registration: --
  • Status:
  • 0 Comment
  • 0 Article
^
My friend mentioned to me your blog, so I thought I’d read it for myself. Very interesting insights, will be back for more!
https://diigo.com/0dvy2q
Reply
  • Group: Members
  • ICQ:
  • Registration: 28.11.2018
  • Status: Currently Offline
  • 216 Comment
  • 0 Article
^
Hi there, I found your blog via Google while searching for such kinda informative post and your post looks very interesting for me.
借款