Set as default Homepage|Bookmark
 
 
» » Jurassic World: Fallen Kingdom (2018) 720p HDTC x264 [Multi Audios][Hin+Tel+Tam+Eng]
Advertise

Jurassic World: Fallen Kingdom (2018) 720p HDTC x264 [Multi Audios][Hin+Tel+Tam+Eng]

Author: wroser on 22-06-2018, 22:39
Jurassic World: Fallen Kingdom (2018) 720p HDTC x264 [Multi Audios][Hin+Tel+Tam+Eng]





General
Format                      : Matroska
Format version              : Version 4 / Version 2
File size                   : 1.01 GiB
Duration                    : 1 h 58 min
Overall bit rate mode       : Variable
Overall bit rate            : 1 214 kb/s
Encoded date                : UTC 2018-06-22 03:37:26
Writing application         : mkvmerge v7.1.0 ('Good Love') 32bit built on Jul 27 2014 12:59:18
Writing library             : libebml v1.3.0 + libmatroska v1.4.1

Video
ID                          : 1
Format                      : AVC
Format/Info                 : Advanced Video Codec
Format profile              : High@L3.1
Format settings, CABAC      : Yes
Format settings, RefFrames  : 4 frames
Codec ID                    : V_MPEG4/ISO/AVC
Duration                    : 1 h 58 min
Bit rate                    : 848 kb/s
Width                       : 1 280 pixels
Height                      : 536 pixels
Display aspect ratio        : 2.40:1
Frame rate mode             : Constant
Frame rate                  : 25.000 FPS
Color space                 : YUV
Chroma subsampling          : 4:2:0
Bit depth                   : 8 bits
Scan type                   : Progressive
Bits/(Pixel*Frame)          : 0.049
Stream size                 : 720 MiB (70%)
Writing library             : x264 core 155 r2901 7d0ff22
Encoding settings           : cabac=1 / ref=3 / deblock=1:0:0 / analyse=0x3:0x113 / me=hex / subme=7 / psy=1 / psy_rd=1.00:0.00 / mixed_ref=1 / me_range=16 / chroma_me=1 / trellis=1 / 8x8dct=1 / cqm=0 / deadzone=21,11 / fast_pskip=1 / chroma_qp_offset=-2 / threads=17 / lookahead_threads=2 / sliced_threads=0 / nr=0 / decimate=1 / interlaced=0 / bluray_compat=0 / constrained_intra=0 / bframes=3 / b_pyramid=2 / b_adapt=1 / b_bias=0 / direct=1 / weightb=1 / open_gop=0 / weightp=2 / keyint=250 / keyint_min=25 / scenecut=40 / intra_refresh=0 / rc_lookahead=40 / rc=2pass / mbtree=1 / bitrate=848 / ratetol=1.0 / qcomp=0.60 / qpmin=0 / qpmax=69 / qpstep=4 / cplxblur=20.0 / qblur=0.5 / ip_ratio=1.40 / aq=1:1.00
Language                    : English
Default                     : Yes
Forced                      : No

Audio #1
ID                          : 2
Format                      : MPEG Audio
Format version              : Version 1
Format profile              : Layer 3
Mode                        : Joint stereo
Mode extension              : MS Stereo
Codec ID                    : A_MPEG/L3
Codec ID/Hint               : MP3
Duration                    : 1 h 58 min
Bit rate mode               : Variable
Bit rate                    : 96.0 kb/s
Channel(s)                  : 2 channels
Sampling rate               : 44.1 kHz
Frame rate                  : 38.281 FPS (1152 SPF)
Compression mode            : Lossy
Stream size                 : 84.2 MiB (8%)
Writing library             : LAME3.99r
Encoding settings           : -m j -V 4 -q 3 -lowpass 15.1 --abr 96
Language                    : Telugu
Default                     : Yes
Forced                      : No

Audio #2
ID                          : 3
Format                      : MPEG Audio
Format version              : Version 1
Format profile              : Layer 3
Mode                        : Joint stereo
Mode extension              : MS Stereo
Codec ID                    : A_MPEG/L3
Codec ID/Hint               : MP3
Duration                    : 1 h 58 min
Bit rate mode               : Variable
Bit rate                    : 96.0 kb/s
Channel(s)                  : 2 channels
Sampling rate               : 44.1 kHz
Frame rate                  : 38.281 FPS (1152 SPF)
Compression mode            : Lossy
Stream size                 : 81.6 MiB (8%)
Writing library             : LAME3.99r
Encoding settings           : -m j -V 4 -q 3 -lowpass 15.1 --abr 96
Language                    : Tamil
Default                     : No
Forced                      : No

Audio #3
ID                          : 4
Format                      : MPEG Audio
Format version              : Version 1
Format profile              : Layer 3
Mode                        : Joint stereo
Mode extension              : MS Stereo
Codec ID                    : A_MPEG/L3
Codec ID/Hint               : MP3
Duration                    : 1 h 58 min
Bit rate mode               : Variable
Bit rate                    : 96.0 kb/s
Channel(s)                  : 2 channels
Sampling rate               : 44.1 kHz
Frame rate                  : 38.281 FPS (1152 SPF)
Compression mode            : Lossy
Stream size                 : 81.1 MiB (8%)
Writing library             : LAME3.99r
Encoding settings           : -m j -V 4 -q 3 -lowpass 15.1 --abr 96
Language                    : Hindi
Default                     : No
Forced                      : No

Audio #4
ID                          : 5
Format                      : MPEG Audio
Format version              : Version 1
Format profile              : Layer 3
Mode                        : Joint stereo
Mode extension              : MS Stereo
Codec ID                    : A_MPEG/L3
Codec ID/Hint               : MP3
Duration                    : 1 h 58 min
Bit rate mode               : Variable
Bit rate                    : 71.3 kb/s
Nominal bit rate            : 64.0 kb/s
Channel(s)                  : 2 channels
Sampling rate               : 44.1 kHz
Frame rate                  : 38.281 FPS (1152 SPF)
Compression mode            : Lossy
Stream size                 : 60.5 MiB (6%)
Writing library             : LAME3.99r
Encoding settings           : -m j -V 4 -q 3 -lowpass 11 --abr 64
Language                    : English
Default                     : No
Forced                      : No


Jurassic World: Fallen Kingdom (2018) 720p HDTC x264 [Multi Audios][Hin+Tel+Tam+Eng]Jurassic World: Fallen Kingdom (2018) 720p HDTC x264 [Multi Audios][Hin+Tel+Tam+Eng]Jurassic World: Fallen Kingdom (2018) 720p HDTC x264 [Multi Audios][Hin+Tel+Tam+Eng]Jurassic World: Fallen Kingdom (2018) 720p HDTC x264 [Multi Audios][Hin+Tel+Tam+Eng]Jurassic World: Fallen Kingdom (2018) 720p HDTC x264 [Multi Audios][Hin+Tel+Tam+Eng]Jurassic World: Fallen Kingdom (2018) 720p HDTC x264 [Multi Audios][Hin+Tel+Tam+Eng]


SINGLE DIRECT FAST LINKS

http://www.heroupload.us/a5eebbcd4de211d0/Jurassic.World.2.2018.New.HDTC.720p.Line.Audios.Telugu+Tamil+Hindi+English.mkv



http://filefloater.com/Tuo/Jurassic.World.2.2018.New.HDTC.720p.Line.Audios.Telugu+Tamil+Hindi+English.mkv




Теги: Jurassic

Dear visitor, you are browsing our website as Guest.
We strongly recommend you to register and login to view hidden contents.

Comments:

Add Comments
Reply
  • Group: Members
  • ICQ:
  • Registration: 22.03.2018
  • Status: Currently Offline
  • 529 Comment
  • 0 Article
^
Reply
  • Group: Members
  • ICQ:
  • Registration: 22.03.2018
  • Status: Currently Offline
  • 529 Comment
  • 0 Article
^
Reply
  • Group: Guests
  • ICQ:
  • Registration: --
  • Status:
  • 0 Comment
  • 0 Article
^
I definitely enjoying every little bit of it. It is a great website and nice share. I want to thank you. Good job! You guys do a great blog, and have some great contents. Keep up the good work.
https://www.sayweee.com/article/view/vl7jf?t=1538381172547
Reply
  • Group: Guests
  • ICQ:
  • Registration: --
  • Status:
  • 0 Comment
  • 0 Article
^
So luck to come across your excellent blog. Your blog brings me a great deal of fun.. Good luck with the site.
http://www.stockhouse.com/blogs/kenneth-young/december-2018/the-untold-secret-to
-mastering-best-mattress-in-just-3-days
Reply
  • Group: Guests
  • ICQ:
  • Registration: --
  • Status:
  • 0 Comment
  • 0 Article
^
Should there be another persuasive post you can share next time, I’ll be surely waiting for it.
Situs Judi Online
Reply
  • Group: Guests
  • ICQ:
  • Registration: --
  • Status:
  • 0 Comment
  • 0 Article
^
I definitely enjoying every little bit of it. It is a great website and nice share. I want to thank you. Good job! You guys do a great blog, and have some great contents. Keep up the good work.https://indosakong.com
Reply
  • Group: Guests
  • ICQ:
  • Registration: --
  • Status:
  • 0 Comment
  • 0 Article
^
I love the blog. Great post. It is very true, people must learn how to learn before they can learn. lol i know it sounds funny but its very true. . .
股票教學
Reply
  • Group: Guests
  • ICQ:
  • Registration: --
  • Status:
  • 0 Comment
  • 0 Article
^
Hey, great blog, but I don’t understand how to add your site in my rss reader. Can you Help me please?
totojitu
Reply
  • Group: Guests
  • ICQ:
  • Registration: --
  • Status:
  • 0 Comment
  • 0 Article
^
Should there be another persuasive post you can share next time, I’ll be surely waiting
e-Commerce Solutions
Reply
  • Group: Guests
  • ICQ:
  • Registration: --
  • Status:
  • 0 Comment
  • 0 Article
^
I definitely enjoying every little bit of it. It is a great website and nice share. I want to thank you. Good job! You guys do a great blog, and have some great contents. Keep up the good work.
https://dailygram.com/index.php/blog/509211/best-wordpress-security-plugin-2018-
a-list-of-11-things-thatll-put-you-in-a/
Reply
  • Group: Guests
  • ICQ:
  • Registration: --
  • Status:
  • 0 Comment
  • 0 Article
^
I would like to thank you for the efforts you have made in writing this article. I am hoping the same best work from you in the future as well. In fact your creative writing abilities has inspired me to start my own BlogEngine blog now. Really the blogging is spreading its wings rapidly. Your write up is a fine example of it.
https://www.sayweee.com/article/view/9wt5a?t=1548854128453
Reply
  • Group: Guests
  • ICQ:
  • Registration: --
  • Status:
  • 0 Comment
  • 0 Article
^
My friend mentioned to me your blog, so I thought I’d read it for myself. Very interesting insights, will be back for more貸款
Reply
  • Group: Members
  • ICQ:
  • Registration: 28.11.2018
  • Status: Currently Offline
  • 216 Comment
  • 0 Article
^
Should there be another persuasive post you can share next time, I’ll be surely waiting for it.
快借網
Reply
  • Group: Guests
  • ICQ:
  • Registration: --
  • Status:
  • 0 Comment
  • 0 Article
^
I would like to thank you for the efforts you have made in writing this article. I am hoping the same best work from you in the future as well. In fact your creative writing abilities has inspired me to start my own BlogEngine blog now. Really the blogging is spreading its wings rapidly. Your write up is a fine example
https://diigo.com/0dqyse
Reply
  • Group: Members
  • ICQ:
  • Registration: 28.11.2018
  • Status: Currently Offline
  • 216 Comment
  • 0 Article
^
You have raised an important issue..Thanks for sharing..I would like to read more current affairs from this blog..keep posting..
https://www.pearltrees.com/jamescrump/item248407175
Reply
  • Group: Guests
  • ICQ:
  • Registration: --
  • Status:
  • 0 Comment
  • 0 Article
^
Your post was very nicely written. I’ll be back in the future for sure!
借貸
Reply
  • Group: Guests
  • ICQ:
  • Registration: --
  • Status:
  • 0 Comment
  • 0 Article
^
So luck to come across your excellent blog. Your blog brings me a great deal of fun.. Good luck with the site.
jee coaching online
Reply
  • Group: Guests
  • ICQ:
  • Registration: --
  • Status:
  • 0 Comment
  • 0 Article
^
Took me time to read all the comments, but I really enjoyed the article. It proved to be Very helpful to me and I am sure to all the commenters here! It’s always nice when you can not only be informed, but also entertained!
amerisleep 
Reply
  • Group: Guests
  • ICQ:
  • Registration: --
  • Status:
  • 0 Comment
  • 0 Article
^
Should there be another persuasive post you can share next time, I’ll be surely waiting for it.
httpwww.fxstat.comenuserprofilehelenareed-102826blog31477564-If-AMERISLEEP-MATRE
SS-2019-Is-So-Terrible,-Why-Dont-Statistics-Show-It
Reply
  • Group: Guests
  • ICQ:
  • Registration: --
  • Status:
  • 0 Comment
  • 0 Article
^
Should there be another persuasive post you can share next time, I’ll be surely waiting for it.
brandt oven repair singapore,