Set as default Homepage|Bookmark
 
 
» » Pakka (2018) Tamil - Ultra HD 4K - Untouched - AVC - Dolby ® 5.1 - Esubs-MTR
Advertise

Pakka (2018) Tamil - Ultra HD 4K - Untouched - AVC - Dolby ® 5.1 - Esubs-MTR

Author: wroser on 10-05-2018, 12:18
Pakka (2018) Tamil - Ultra HD 4K - Untouched - AVC - Dolby ® 5.1 - Esubs-MTR




General
Format                      : MPEG-4
Codec ID                    : M4V  (isom/avc1/mp42)
File size                   : 5.52 GiB
Duration                    : 2 h 19 min
Overall bit rate mode       : Variable
Overall bit rate            : 5 647 kb/s
Encoded date                : UTC 2018-05-09 10:35:17
Tagged date                 : UTC 2018-05-09 10:35:17

Video
ID                          : 1
Format                      : AVC
Format/Info                 : Advanced Video Codec
Format profile              : [email protected]
Format settings, CABAC      : Yes
Format settings, RefFrames  : 3 frames
Codec ID                    : avc1
Codec ID/Info               : Advanced Video Coding
Duration                    : 2 h 19 min
Bit rate mode               : Constant
Bit rate                    : 5 000 kb/s
Maximum bit rate            : 11.7 Mb/s
Width                       : 3 840 pixels
Height                      : 2 160 pixels
Display aspect ratio        : 16:9
Frame rate mode             : Constant
Frame rate                  : 24.000 FPS
Color space                 : YUV
Chroma subsampling          : 4:2:0
Bit depth                   : 8 bits
Scan type                   : Progressive
Bits/(Pixel*Frame)          : 0.025
Stream size                 : 4.88 GiB (89%)
Encoded date                : UTC 2018-05-09 10:35:17
Tagged date                 : UTC 2018-05-09 10:35:17
Color range                 : Limited
Color primaries             : BT.709
Transfer characteristics    : BT.709
Matrix coefficients         : BT.709

Audio #1
ID                          : 2
Format                      : AAC
Format/Info                 : Advanced Audio Codec
Format profile              : LC
Codec ID                    : 40
Duration                    : 2 h 19 min
Bit rate mode               : Variable
Bit rate                    : 128 kb/s
Maximum bit rate            : 133 kb/s
Channel(s)                  : 2 channels
Channel positions           : Front: L R
Sampling rate               : 48.0 kHz
Frame rate                  : 46.875 FPS (1024 SPF)
Compression mode            : Lossy
Stream size                 : 125 MiB (2%)
Language                    : English
Encoded date                : UTC 2018-05-09 10:35:17
Tagged date                 : UTC 2018-05-09 10:35:17

Audio #2
ID                          : 3
Format                      : AC-3
Format/Info                 : Audio Coding 3
Format settings, Endianness : Big
Codec ID                    : ac-3
Duration                    : 2 h 19 min
Bit rate mode               : Constant
Bit rate                    : 512 kb/s
Channel(s)                  : 6 channels
Channel positions           : Front: L C R, Side: L R, LFE
Sampling rate               : 48.0 kHz
Frame rate                  : 31.250 FPS (1536 SPF)
Bit depth                   : 16 bits
Compression mode            : Lossy
Stream size                 : 512 MiB (9%)
Language                    : English
Service kind                : Complete Main
Encoded date                : UTC 2018-05-09 10:35:17
Tagged date                 : UTC 2018-05-09 10:35:17



Pakka (2018) Tamil - Ultra HD 4K - Untouched - AVC - Dolby ® 5.1 - Esubs-MTRPakka (2018) Tamil - Ultra HD 4K - Untouched - AVC - Dolby ® 5.1 - Esubs-MTRPakka (2018) Tamil - Ultra HD 4K - Untouched - AVC - Dolby ® 5.1 - Esubs-MTRPakka (2018) Tamil - Ultra HD 4K - Untouched - AVC - Dolby ® 5.1 - Esubs-MTR


SINGLE DIRECT FAST LINKS

http://www.heroupload.us/269ead2685590ac7/Pakka.2018.4K.Untouched.UHD.MP4.ESubs.Tamil-MTR.mp4


1GB LINKS


http://www.heroupload.us/0d4746df1c0bccac/Pakka.2018.4K.Untouched.UHD.MP4.ESubs.Tamil-MTR.part1.rar
http://www.heroupload.us/0b7c06ab1be8349b/Pakka.2018.4K.Untouched.UHD.MP4.ESubs.Tamil-MTR.part2.rar
http://www.heroupload.us/50287f064aa722e9/Pakka.2018.4K.Untouched.UHD.MP4.ESubs.Tamil-MTR.part3.rar
http://www.heroupload.us/fe7afdb44b76a73c/Pakka.2018.4K.Untouched.UHD.MP4.ESubs.Tamil-MTR.part4.rar
http://www.heroupload.us/7b26b2986b3c4286/Pakka.2018.4K.Untouched.UHD.MP4.ESubs.Tamil-MTR.part5.rar
http://www.heroupload.us/049813761011b15f/Pakka.2018.4K.Untouched.UHD.MP4.ESubs.Tamil-MTR.part6.rar
http://www.heroupload.us/21872052bdd98a7c/Pakka.2018.4K.Untouched.UHD.MP4.ESubs.Tamil-MTR.srt



http://filefloater.com/T2g/Pakka.2018.4K.Untouched.UHD.MP4.ESubs.Tamil-MTR.part1.rar
http://filefloater.com/T2h/Pakka.2018.4K.Untouched.UHD.MP4.ESubs.Tamil-MTR.part2.rar
http://filefloater.com/T2i/Pakka.2018.4K.Untouched.UHD.MP4.ESubs.Tamil-MTR.part3.rar
http://filefloater.com/T2j/Pakka.2018.4K.Untouched.UHD.MP4.ESubs.Tamil-MTR.part4.rar
http://filefloater.com/T2k/Pakka.2018.4K.Untouched.UHD.MP4.ESubs.Tamil-MTR.part5.rar
http://filefloater.com/T2l/Pakka.2018.4K.Untouched.UHD.MP4.ESubs.Tamil-MTR.part6.rar
http://filefloater.com/T2m/Pakka.2018.4K.Untouched.UHD.MP4.ESubs.Tamil-MTR.srt



Теги: Pakka

Dear visitor, you are browsing our website as Guest.
We strongly recommend you to register and login to view hidden contents.

Comments:

Add Comments
Reply
  • Group: Guests
  • ICQ:
  • Registration: --
  • Status:
  • 0 Comment
  • 0 Article
^
viagra online norge
<a href="http://viagranbdnr.com/where-to-buy-viagra-online.html">compr
ar sildenafil online argentina</a>
how long before sex should i take viagra pill
how to get viagra without prescriptions
Reply
  • Group: Guests
  • ICQ:
  • Registration: --
  • Status:
  • 0 Comment
  • 0 Article
^
pillola cialis e viagra
<a href="http://viagranbdnr.com/cheap-viagra-soft-tabs.html">how strong is 100mg of viagra</a>
is there really a generic viagra
viagra generic patent expires
Reply
  • Group: Guests
  • ICQ:
  • Registration: --
  • Status:
  • 0 Comment
  • 0 Article
^
buy viagra super active
<a href="http://viagrarutjdfk.com/order-viagra-paypal.html">buy viagra gnc</a>
cheap viagra deals
viagra 100mg dosage
Reply
  • Group: Guests
  • ICQ:
  • Registration: --
  • Status:
  • 0 Comment
  • 0 Article
^
sildenafil pfizer 100mg
<a href="http://viagranbdnr.com/cheap-viagra-uk-next-day-delivery.html"&g
t;online apotheke viagra test</a>
when will viagra and cialis go generic
viagra tablets online
Reply
  • Group: Guests
  • ICQ:
  • Registration: --
  • Status:
  • 0 Comment
  • 0 Article
^
farmacia online viagra
<a href="http://viagranbdnr.com/buy-viagra-manila.html">viagra lowest price canada</a>
cutting viagra pills in half message boards
sildenafil se puede comprar sin receta
Reply
  • Group: Guests
  • ICQ:
  • Registration: --
  • Status:
  • 0 Comment
  • 0 Article
^
online viagra fast shipping
<a href="http://viagranbdnr.com/himalayan-viagra-for-sale.html">nhs viagra price</a>
vrouwelijke viagra pill
buy viagra legal
Reply
  • Group: Guests
  • ICQ:
  • Registration: --
  • Status:
  • 0 Comment
  • 0 Article
^
do you need prescription buy viagra
<a href="http://viagrarutjdfk.com/buy-viagra-online-japan.html">where do i get viagra in bangalore</a>
sildenafil order online
buy genuine viagra in uk
Reply
  • Group: Guests
  • ICQ:
  • Registration: --
  • Status:
  • 0 Comment
  • 0 Article
^
canadian online pharmacies
<a href="https://cvspharnmacy.com/#">cvs stock</a>
cvs online pharmacy
cvs target pharmacy
prescriptions online
Reply
  • Group: Guests
  • ICQ:
  • Registration: --
  • Status:
  • 0 Comment
  • 0 Article
^
prescription drugs without prior prescription
<a href="https://bartelldrugsy.com/#">bartell drugs</a>
List of Safe Online Pharmacies
bartell drugs pharmacy
Legitimate Canadian Mail Order Pharmacies
Reply
  • Group: Guests
  • ICQ:
  • Registration: --
  • Status:
  • 0 Comment
  • 0 Article
^
online doctors that provide prescriptions
<a href="http://prayforeasterncanada.com/#">viagra without doctor prescription judpharmacy</a>
viagra without doctor prescription
viagra without doctor prescription judpharmacy
best generic viagra websites
<a href="http://athensapartmentsonline.com/#">viagra without prescription</a>
viagra without prescription
viagra without prescription
online doctors