Set as default Homepage|Bookmark
 
 
» » Shivaay (2016) Hindi - 720p - HDRip - x264-Exclusive
Advertise

Shivaay (2016) Hindi - 720p - HDRip - x264-Exclusive

Author: wroser on 20-02-2017, 11:11
Shivaay (2016) Hindi - 720p - HDRip - x264-Exclusive





General
Format                                   : Windows Media
File size                                : 3.63 GiB
Duration                                 : 2 h 29 min
Overall bit rate mode                    : Constant
Overall bit rate                         : 3 491 kb/s
Maximum Overall bit rate                 : 6 236 kb/s
Encoded date                             : UTC 2017-02-20 01:26:36.758

Video
ID                                       : 2
Format                                   : WMV1
Codec ID                                 : WMV1
Codec ID/Info                            : Windows Media Video 7
Description of the codec                 : Windows Media Video V7
Duration                                 : 2 h 29 min
Bit rate mode                            : Constant
Bit rate                                 : 6 000 kb/s
Width                                    : 1 368 pixels
Height                                   : 576 pixels
Display aspect ratio                     : 2.40:1
Frame rate                               : 25.000 FPS
Bit depth                                : 8 bits
Bits/(Pixel*Frame)                       : 0.305
Stream size                              : 6.25 GiB
Language                                 : English (US)

Audio
ID                                       : 1
Format                                   : WMA
Format version                           : Version 2
Codec ID                                 : 161
Codec ID/Info                            : Windows Media Audio
Description of the codec                 : Windows Media Audio 9.2 - 192 kbps, 44 kHz, stereo 1-pass CBR
Duration                                 : 2 h 29 min
Bit rate mode                            : Constant
Bit rate                                 : 192 kb/s
Channel(s)                               : 2 channels
Sampling rate                            : 44.1 kHz
Bit depth                                : 16 bits
Stream size                              : 205 MiB (5%)
Language                                 : English (US)




Shivaay (2016) Hindi - 720p - HDRip - x264-Exclusive
Shivaay (2016) Hindi - 720p - HDRip - x264-Exclusive
Shivaay (2016) Hindi - 720p - HDRip - x264-Exclusive
Shivaay (2016) Hindi - 720p - HDRip - x264-Exclusive



[B]
SINGLE DIRECT FAST LINKS[/B]

http://www.heroupload.com/3b2cea7da8eccbcc/Shivaay.2016.Hindi.720p.HDRip.x264-Exclusive.wmv


[B]700MB LINKS
[/B]


http://www.heroupload.com/3a237d35480f7c06/Shivaay.2016.Hindi.720p.HDRip.x264-Exclusive.wmv.001
http://www.heroupload.com/379919e583e6ebab/Shivaay.2016.Hindi.720p.HDRip.x264-Exclusive.wmv.002
http://www.heroupload.com/67e1555c32839add/Shivaay.2016.Hindi.720p.HDRip.x264-Exclusive.wmv.003
http://www.heroupload.com/393fb13623d25f73/Shivaay.2016.Hindi.720p.HDRip.x264-Exclusive.wmv.004



Dear visitor, you are browsing our website as Guest.
We strongly recommend you to register and login to view hidden contents.

Comments:

Add Comments