Set as default Homepage|Bookmark
 
 
» » Aadhi (2018) Malayalam - 1.37GB - 1/3TCRip - x264 - MP3-MTR
Advertise

Aadhi (2018) Malayalam - 1.37GB - 1/3TCRip - x264 - MP3-MTR

Author: wroser on 7-02-2018, 12:25
Aadhi (2018) Malayalam - 1.37GB - 1/3TCRip - x264 - MP3-MTR






General
Format                      : Matroska
Format version              : Version 4 / Version 2
File size                   : 1.40 GiB
Duration                    : 2 h 34 min
Overall bit rate            : 1 300 kb/s
Encoded date                : UTC 2018-02-05 17:17:13
Writing application         : mkvmerge v7.8.0 ('River Man') 64bit built on Mar 27 2015 16:31:37
Writing library             : libebml v1.3.1 + libmatroska v1.4.2

Video
ID                          : 1
Format                      : AVC
Format/Info                 : Advanced Video Codec
Format profile              : High@L2.2
Format settings, CABAC      : Yes
Format settings, RefFrames  : 4 frames
Codec ID                    : V_MPEG4/ISO/AVC
Duration                    : 2 h 34 min
Bit rate                    : 1 202 kb/s
Width                       : 720 pixels
Height                      : 288 pixels
Display aspect ratio        : 2.500
Frame rate mode             : Constant
Frame rate                  : 25.000 FPS
Color space                 : YUV
Chroma subsampling          : 4:2:0
Bit depth                   : 8 bits
Scan type                   : Progressive
Bits/(Pixel*Frame)          : 0.232
Stream size                 : 1.29 GiB (92%)
Writing library             : x264 core 152 r2851 ba24899
Encoding settings           : cabac=1 / ref=3 / deblock=1:0:0 / analyse=0x3:0x113 / me=hex / subme=7 / psy=1 / psy_rd=1.00:0.00 / mixed_ref=1 / me_range=16 / chroma_me=1 / trellis=1 / 8x8dct=1 / cqm=0 / deadzone=21,11 / fast_pskip=1 / chroma_qp_offset=-2 / threads=9 / lookahead_threads=1 / sliced_threads=0 / nr=0 / decimate=1 / interlaced=0 / bluray_compat=0 / constrained_intra=0 / bframes=3 / b_pyramid=2 / b_adapt=1 / b_bias=0 / direct=1 / weightb=1 / open_gop=0 / weightp=2 / keyint=250 / keyint_min=25 / scenecut=40 / intra_refresh=0 / rc_lookahead=40 / rc=2pass / mbtree=1 / bitrate=1202 / ratetol=1.0 / qcomp=0.60 / qpmin=0 / qpmax=69 / qpstep=4 / cplxblur=20.0 / qblur=0.5 / ip_ratio=1.40 / aq=1:1.00
Language                    : English
Default                     : Yes
Forced                      : No

Audio
ID                          : 2
Format                      : MPEG Audio
Format version              : Version 2
Format profile              : Layer 3
Mode                        : Joint stereo
Mode extension              : MS Stereo
Codec ID                    : A_MPEG/L3
Codec ID/Hint               : MP3
Duration                    : 2 h 34 min
Bit rate mode               : Constant
Bit rate                    : 96.0 kb/s
Channel(s)                  : 2 channels
Sampling rate               : 22.05 kHz
Frame rate                  : 38.281 FPS (576 SPF)
Compression mode            : Lossy
Stream size                 : 106 MiB (7%)
Writing library             : LAME3.99.5
Language                    : English
Default                     : Yes
Forced                      : No


Aadhi (2018) Malayalam - 1.37GB - 1/3TCRip - x264 - MP3-MTRAadhi (2018) Malayalam - 1.37GB - 1/3TCRip - x264 - MP3-MTRAadhi (2018) Malayalam - 1.37GB - 1/3TCRip - x264 - MP3-MTRAadhi (2018) Malayalam - 1.37GB - 1/3TCRip - x264 - MP3-MTRAadhi (2018) Malayalam - 1.37GB - 1/3TCRip - x264 - MP3-MTR


SINGLE DIRECT FAST LINKS

https://www.heroupload.com/1b291fc02389bbd1/Aadhi.2018.Malayalam.x264-MTR.mkv


http://filefloater.com/ccw/Aadhi.2018.Malayalam.x264-MTR.mkv



Теги: Aadhi

Dear visitor, you are browsing our website as Guest.
We strongly recommend you to register and login to view hidden contents.

Comments:

Add Comments
Reply
  • Group: Guests
  • ICQ:
  • Registration: --
  • Status:
  • 0 Comment
  • 0 Article
^
Nice movie
BSS commerce
Reply
  • Group: Guests
  • ICQ:
  • Registration: --
  • Status:
  • 0 Comment
  • 0 Article
^
关于博客文章护理协调的非常翔实的博客,关于护理https://haoessays.wordpress.com/,你做得很好,感谢与大家分享,继续发帖
Reply
  • Group: Guests
  • ICQ:
  • Registration: --
  • Status:
  • 0 Comment
  • 0 Article
^
It is interesting to read your blog post and I am going to share it with my friends.<a
Reply
  • Miller

  • 16 December 2018 09:27
  • Group: Guests
  • ICQ:
  • Registration: --
  • Status:
  • 0 Comment
  • 0 Article
^
Marketing is also very popular method to grow up the home-based business. because of marketing our business can https://www.dissertationhqhelp.com up not only online business even formal business all need to advertise in the market then the business can run well.