Set as default Homepage|Bookmark
 
 
» » Kaattu (2017) Malayalam - 1080p - HDRip - x264 - MP3-MTR
Advertise

Kaattu (2017) Malayalam - 1080p - HDRip - x264 - MP3-MTR

Author: wroser on 8-01-2018, 22:37
Kaattu (2017) Malayalam - 1080p - HDRip - x264 - MP3-MTR





General
Format                      : Matroska
Format version              : Version 4 / Version 2
File size                   : 2.54 GiB
Duration                    : 2 h 41 min
Overall bit rate            : 2 250 kb/s
Encoded date                : UTC 2018-01-07 12:55:58
Writing application         : mkvmerge v7.8.0 ('River Man') 64bit built on Mar 27 2015 16:31:37
Writing library             : libebml v1.3.1 + libmatroska v1.4.2

Video
ID                          : 1
Format                      : AVC
Format/Info                 : Advanced Video Codec
Format profile              : Main@L4
Format settings, CABAC      : Yes
Format settings, RefFrames  : 4 frames
Codec ID                    : V_MPEG4/ISO/AVC
Duration                    : 2 h 41 min
Bit rate                    : 2 150 kb/s
Width                       : 1 920 pixels
Height                      : 1 080 pixels
Display aspect ratio        : 16:9
Frame rate mode             : Constant
Frame rate                  : 29.970 (30000/1001) FPS
Color space                 : YUV
Chroma subsampling          : 4:2:0
Bit depth                   : 8 bits
Scan type                   : Progressive
Bits/(Pixel*Frame)          : 0.035
Stream size                 : 2.43 GiB (96%)
Writing library             : x264 core 148 r2708 86b7198
Encoding settings           : cabac=1 / ref=2 / deblock=1:0:0 / analyse=0x1:0x111 / me=hex / subme=6 / psy=1 / psy_rd=1.00:0.00 / mixed_ref=1 / me_range=16 / chroma_me=1 / trellis=1 / 8x8dct=0 / cqm=0 / deadzone=21,11 / fast_pskip=1 / chroma_qp_offset=-2 / threads=12 / lookahead_threads=2 / sliced_threads=0 / nr=0 / decimate=1 / interlaced=0 / bluray_compat=0 / constrained_intra=0 / bframes=3 / b_pyramid=2 / b_adapt=1 / b_bias=0 / direct=1 / weightb=1 / open_gop=0 / weightp=1 / keyint=300 / keyint_min=30 / scenecut=40 / intra_refresh=0 / rc_lookahead=30 / rc=2pass / mbtree=1 / bitrate=2150 / ratetol=1.0 / qcomp=0.60 / qpmin=0 / qpmax=69 / qpstep=4 / cplxblur=20.0 / qblur=0.5 / vbv_maxrate=20000 / vbv_bufsize=25000 / nal_hrd=none / filler=0 / ip_ratio=1.40 / aq=1:1.00
Language                    : English
Default                     : Yes
Forced                      : No
Color range                 : Limited
Color primaries             : BT.709
Transfer characteristics    : BT.709
Matrix coefficients         : BT.709

Audio
ID                          : 2
Format                      : MPEG Audio
Format version              : Version 1
Format profile              : Layer 3
Mode                        : Joint stereo
Mode extension              : MS Stereo
Codec ID                    : A_MPEG/L3
Codec ID/Hint               : MP3
Duration                    : 2 h 41 min
Bit rate mode               : Constant
Bit rate                    : 96.0 kb/s
Channel(s)                  : 2 channels
Sampling rate               : 48.0 kHz
Frame rate                  : 41.667 FPS (1152 SPF)
Compression mode            : Lossy
Delay relative to video     : -23 ms
Stream size                 : 111 MiB (4%)
Writing library             : LAME3.98
Language                    : English
Default                     : Yes
Forced                      : No



Kaattu (2017) Malayalam - 1080p - HDRip - x264 - MP3-MTRKaattu (2017) Malayalam - 1080p - HDRip - x264 - MP3-MTRKaattu (2017) Malayalam - 1080p - HDRip - x264 - MP3-MTRKaattu (2017) Malayalam - 1080p - HDRip - x264 - MP3-MTR


SINGLE DIRECT FAST LINKS
https://www.heroupload.com/48a02a628514d37a/Kaattu.2017.Malayalam.1080p.HDRip.x264-MTR.mkv


http://filefloater.com/4ai/Kaattu.2017.Malayalam.1080p.HDRip.x264-MTR.mkv

700MB LINKS

https://www.heroupload.com/f491da02130150fa/Kaattu.2017.Malayalam.1080p.HDRip.x264-MTR.part1.rar
https://www.heroupload.com/57b3e3dc536a294b/Kaattu.2017.Malayalam.1080p.HDRip.x264-MTR.part2.rar
https://www.heroupload.com/66f3ae34daf2d100/Kaattu.2017.Malayalam.1080p.HDRip.x264-MTR.part3.rar
https://www.heroupload.com/efca83683875a171/Kaattu.2017.Malayalam.1080p.HDRip.x264-MTR.part4.rar



http://filefloater.com/4an/Kaattu.2017.Malayalam.1080p.HDRip.x264-MTR.part1.rar
http://filefloater.com/4ao/Kaattu.2017.Malayalam.1080p.HDRip.x264-MTR.part2.rar
http://filefloater.com/4ap/Kaattu.2017.Malayalam.1080p.HDRip.x264-MTR.part3.rar
http://filefloater.com/4aq/Kaattu.2017.Malayalam.1080p.HDRip.x264-MTR.part4.rar


Теги: Kaattu

Dear visitor, you are browsing our website as Guest.
We strongly recommend you to register and login to view hidden contents.

Comments:

Add Comments