Set as default Homepage|Bookmark
 
 
» » Khandaani Shafakhana (2019) (Video Songs) 1080p - WEB-HD - AVC - DD5.1-DUS
Advertise

Khandaani Shafakhana (2019) (Video Songs) 1080p - WEB-HD - AVC - DD5.1-DUS

Author: wroser on 1-10-2019, 12:24
Khandaani Shafakhana (2019) (Video Songs) 1080p - WEB-HD - AVC - DD5.1-DUS





Media info
General
Format : Matroska
Format version : Version 4
File size : 1.28 GB
Overall bit rate : 10.4 Mb/s
Encoded date : UTC 2019-10-01 04:54:05
Writing application : mkvmerge v36.0.0 ('Is That Jazz?') 64-bit
Writing library : libebml v1.3.9 + libmatroska v1.5.2

Video
ID : 1
Format : AVC
Format/Info : Advanced Video Codec
Format profile : [email protected]
Format settings : CABAC / 4 Ref Frames
Format settings, CABAC : Yes
Format settings, Reference frames : 4 frames
Codec ID : V_MPEG4/ISO/AVC
Bit rate mode : Constant
Bit rate : 10 000 kb/s
Width : 1 920 pixels
Height : 816 pixels
Display aspect ratio : 2.35:1
Frame rate mode : Constant
Frame rate : 24.000 FPS
Color space : YUV
Chroma subsampling : 4:2:0
Bit depth : 8 bits
Scan type : Progressive
Bits/(Pixel*Frame) : 0.266
Stream size : 277 MiB (94%)
Default : Yes
Forced : No
Color range : Limited
Color primaries : BT.709
Transfer characteristics : BT.709
Matrix coefficients : BT.709

Audio
ID : 2
Format : E-AC-3
Format/Info : Enhanced AC-3
Commercial name : Dolby Digital Plus
Codec ID : A_EAC3
Bit rate mode : Constant
Bit rate : 640 kb/s
Channel(s) : 6 channels
Channel layout : L R C LFE Ls Rs
Sampling rate : 48.0 kHz
Frame rate : 31.250 FPS (1536 SPF)
Compression mode : Lossy
Delay relative to video : 16 ms
Stream size : 18.0 MiB (6%)
Title : [By-DusIcTv]
Language : Hindi
Service kind : Complete Main
Default : No
Forced : No

Text
ID : 3
Format : UTF-8
Codec ID : S_TEXT/UTF8
Codec ID/Info : UTF-8 Plain Text
Bit rate : 81 b/s
Count of elements : 68
Stream size : 2.35 KiB (0%)
Title : [By-DusIcTv]
Language : English
Default : No
Forced : No





Khandaani Shafakhana (2019) (Video Songs) 1080p - WEB-HD - AVC - DD5.1-DUS
Khandaani Shafakhana (2019) (Video Songs) 1080p - WEB-HD - AVC - DD5.1-DUS
Khandaani Shafakhana (2019) (Video Songs) 1080p - WEB-HD - AVC - DD5.1-DUS
Khandaani Shafakhana (2019) (Video Songs) 1080p - WEB-HD - AVC - DD5.1-DUS
Khandaani Shafakhana (2019) (Video Songs) 1080p - WEB-HD - AVC - DD5.1-DUS
Khandaani Shafakhana (2019) (Video Songs) 1080p - WEB-HD - AVC - DD5.1-DUS
Khandaani Shafakhana (2019) (Video Songs) 1080p - WEB-HD - AVC - DD5.1-DUS
Khandaani Shafakhana (2019) (Video Songs) 1080p - WEB-HD - AVC - DD5.1-DUS
Khandaani Shafakhana (2019) (Video Songs) 1080p - WEB-HD - AVC - DD5.1-DUS
Khandaani Shafakhana (2019) (Video Songs) 1080p - WEB-HD - AVC - DD5.1-DUS
Khandaani Shafakhana (2019) (Video Songs) 1080p - WEB-HD - AVC - DD5.1-DUS
Khandaani Shafakhana (2019) (Video Songs) 1080p - WEB-HD - AVC - DD5.1-DUS
Khandaani Shafakhana (2019) (Video Songs) 1080p - WEB-HD - AVC - DD5.1-DUS
Khandaani Shafakhana (2019) (Video Songs) 1080p - WEB-HD - AVC - DD5.1-DUS
Khandaani Shafakhana (2019) (Video Songs) 1080p - WEB-HD - AVC - DD5.1-DUS

SINGLE DIRECT FAST LINKS


https://www.heroupload.com/14e0987788de585d/01-Saans_To_Le_Le_[By-DusIcTv].mkv
https://www.heroupload.com/6848188a92070472/02-Udd_Jaa_[By-DusIcTv].mkv
https://www.heroupload.com/66b3b2926ac77a85/03-Chadd_Gyaa_Paara_[By-DusIcTv].mkv
https://www.heroupload.com/6bed862ee2dd5ac8/04-Bheege_Mann_[By-DusIcTv].mkv
https://www.heroupload.com/7408e8d9920aa874/05-Koka_End_Roll_[By-DusIcTv].mkv




Теги: Khandaani

Dear visitor, you are browsing our website as Guest.
We strongly recommend you to register and login to view hidden contents.

Comments:

Add Comments