Set as default Homepage|Bookmark
 
 
» » Arjun Patiala (2019) (Video Songs) 1080p - WEB-HD - AVC - DD5.1-DUS
Advertise

Arjun Patiala (2019) (Video Songs) 1080p - WEB-HD - AVC - DD5.1-DUS

Author: wroser on 1-10-2019, 12:17
Arjun Patiala (2019) (Video Songs) 1080p - WEB-HD - AVC - DD5.1-DUS





Media info
General
Format : Matroska
Format version : Version 4
File size : 1.16 GB
Overall bit rate : 13.3 Mb/s
Encoded date : UTC 2019-09-20 04:16:51
Writing application : mkvmerge v36.0.0 ('Is That Jazz?') 64-bit
Writing library : libebml v1.3.9 + libmatroska v1.5.2

Video
ID : 1
Format : AVC
Format/Info : Advanced Video Codec
Format profile : [email protected]
Format settings : CABAC / 4 Ref Frames
Format settings, CABAC : Yes
Format settings, Reference frames : 4 frames
Codec ID : V_MPEG4/ISO/AVC
Bit rate : 12.6 Mb/s
Width : 1 920 pixels
Height : 816 pixels
Display aspect ratio : 2.35:1
Frame rate mode : Constant
Frame rate : 24.000 FPS
Color space : YUV
Chroma subsampling : 4:2:0
Bit depth : 8 bits
Scan type : Progressive
Bits/(Pixel*Frame) : 0.335
Stream size : 206 MiB (95%)
Default : Yes
Forced : No
Color range : Limited
Color primaries : BT.709
Transfer characteristics : BT.709
Matrix coefficients : BT.709

Audio
ID : 2
Format : E-AC-3
Format/Info : Enhanced AC-3
Commercial name : Dolby Digital Plus
Codec ID : A_EAC3
Bit rate mode : Constant
Bit rate : 640 kb/s
Channel(s) : 6 channels
Channel layout : L R C LFE Ls Rs
Sampling rate : 48.0 kHz
Frame rate : 31.250 FPS (1536 SPF)
Compression mode : Lossy
Delay relative to video : 30 ms
Stream size : 10.4 MiB (5%)
Title : [By-DusIcTv]
Language : Hindi
Service kind : Complete Main
Default : No
Forced : No

Text
ID : 3
Format : UTF-8
Codec ID : S_TEXT/UTF8
Codec ID/Info : UTF-8 Plain Text
Bit rate : 69 b/s
Count of elements : 44
Stream size : 1.07 KiB (0%)
Title : [By-DusIcTv]
Language : English
Default : No
Forced : No



Arjun Patiala (2019) (Video Songs) 1080p - WEB-HD - AVC - DD5.1-DUS Arjun Patiala (2019) (Video Songs) 1080p - WEB-HD - AVC - DD5.1-DUS Arjun Patiala (2019) (Video Songs) 1080p - WEB-HD - AVC - DD5.1-DUS Arjun Patiala (2019) (Video Songs) 1080p - WEB-HD - AVC - DD5.1-DUS Arjun Patiala (2019) (Video Songs) 1080p - WEB-HD - AVC - DD5.1-DUS Arjun Patiala (2019) (Video Songs) 1080p - WEB-HD - AVC - DD5.1-DUS Arjun Patiala (2019) (Video Songs) 1080p - WEB-HD - AVC - DD5.1-DUS Arjun Patiala (2019) (Video Songs) 1080p - WEB-HD - AVC - DD5.1-DUS Arjun Patiala (2019) (Video Songs) 1080p - WEB-HD - AVC - DD5.1-DUS Arjun Patiala (2019) (Video Songs) 1080p - WEB-HD - AVC - DD5.1-DUS Arjun Patiala (2019) (Video Songs) 1080p - WEB-HD - AVC - DD5.1-DUS Arjun Patiala (2019) (Video Songs) 1080p - WEB-HD - AVC - DD5.1-DUS Arjun Patiala (2019) (Video Songs) 1080p - WEB-HD - AVC - DD5.1-DUS Arjun Patiala (2019) (Video Songs) 1080p - WEB-HD - AVC - DD5.1-DUS Arjun Patiala (2019) (Video Songs) 1080p - WEB-HD - AVC - DD5.1-DUS Arjun Patiala (2019) (Video Songs) 1080p - WEB-HD - AVC - DD5.1-DUS Arjun Patiala (2019) (Video Songs) 1080p - WEB-HD - AVC - DD5.1-DUS Arjun Patiala (2019) (Video Songs) 1080p - WEB-HD - AVC - DD5.1-DUS

SINGLE DIRECT FAST LINKS


https://www.heroupload.com/f217aef8e71d2a49/01-Paaji_Cool_[By-DusIcTv].mkv
https://www.heroupload.com/4426b11583c56643/02-Patiala_Peg_[By-DusIcTv].mkv
https://www.heroupload.com/2af943e5fe44f0da/03-Crazy_Habibi_Vs_Decent_Munda_[By-DusIcTv].mkv
https://www.heroupload.com/3d27495767019db9/04-Main_Deewana_Tera_[By-DusIcTv].mkv
https://www.heroupload.com/92bc669d68c98981/05-Sachiya_Mohabbatan_[By-DusIcTv].mkv
https://www.heroupload.com/b9632e42b90214ba/06-Dil_Todeya_[By-DusIcTv].mkv
https://www.heroupload.com/3d91e9ad6aa5475d/07-Sip_Sip_+_Patiala_Peg_End_Roll_[By-DusIcTv].mkv





Теги: Arjun

Dear visitor, you are browsing our website as Guest.
We strongly recommend you to register and login to view hidden contents.

Comments:

Add Comments