Set as default Homepage|Bookmark
 
 
» » De De Pyaar De (2019) (MUSIC VIDEOS) 1080p - WEB-HD - AVC - DD5.1-DUS
Advertise

De De Pyaar De (2019) (MUSIC VIDEOS) 1080p - WEB-HD - AVC - DD5.1-DUS

Author: wroser on 1-10-2019, 12:03
De De Pyaar De (2019) (MUSIC VIDEOS) 1080p - WEB-HD - AVC - DD5.1-DUS





Media info

General
Format                         : Matroska
Format version                 : Version 4
File size                      : 766 MB
Overall bit rate               : 5165 kb/s
Writing application            : mkvmerge v35.0.0 ('All The Love In The World') 64-bit
Writing library                : libebml v1.3.9 + libmatroska v1.5.2

Video
ID                             : 1
Format                         : AVC
Format/Info                    : Advanced Video Codec
Format profile                 : [email protected]
Format settings                : CABAC / 4 Ref Frames
Format settings, CABAC         : Yes
Format settings, Reference fra : 4 frames
Codec ID                       : V_MPEG4/ISO/AVC
Bit rate                       : 4523 kb/s
Width                          : 1920 pixels
Height                         : 816 pixels
Display aspect ratio           : 2.35:1
Frame rate mode                : Constant
Frame rate                     : 24.000 FPS
Color space                    : YUV
Chroma subsampling             : 4:2:0
Bit depth                      : 8 bits
Scan type                      : Progressive
Bits/(Pixel*Frame)             : 0.120
Stream size                    : 116 MiB (88%)
Title                          : DusIcTv
Default                        : Yes
Forced                         : No

Audio
ID                             : 2
Format                         : E-AC-3
Format/Info                    : Enhanced AC-3
Commercial name                : Dolby Digital Plus
Codec ID                       : A_EAC3
Bit rate mode                  : Constant
Bit rate                       : 640 kb/s
Channel(s)                     : 6 channels
Channel layout                 : L R C LFE Ls Rs
Sampling rate                  : 48.0 kHz
Frame rate                     : 31.250 FPS (1536 SPF)
Compression mode               : Lossy
Delay relative to video        : 9 ms
Stream size                    : 16.4 MiB (12%)
Title                          : DusIcTv
Language                       : Hindi
Service kind                   : Complete Main
Default                        : Yes
Forced                         : No

Text #1
ID                             : 3
Format                         : UTF-8
Codec ID                       : S_TEXT/UTF8
Codec ID/Info                  : UTF-8 Plain Text
Bit rate                       : 36 b/s
Count of elements              : 29
Stream size                    : 839 Bytes (0%)
Language                       : English
Default                        : Yes
Forced                         : No

Text #2
ID                             : 4
Format                         : UTF-8
Codec ID                       : S_TEXT/UTF8
Codec ID/Info                  : UTF-8 Plain Text
Bit rate                       : 59 b/s
Count of elements              : 29
Stream size                    : 1.33 KiB (0%)
Language                       : French
Default                        : No
Forced                         : No

Text #3
ID                             : 5
Format                         : UTF-8
Codec ID                       : S_TEXT/UTF8
Codec ID/Info                  : UTF-8 Plain Text
Bit rate                       : 60 b/s
Count of elements              : 29
Stream size                    : 1.37 KiB (0%)
Language                       : German
Default                        : No
Forced                         : No



De De Pyaar De (2019) (MUSIC VIDEOS) 1080p - WEB-HD - AVC - DD5.1-DUS
De De Pyaar De (2019) (MUSIC VIDEOS) 1080p - WEB-HD - AVC - DD5.1-DUS
De De Pyaar De (2019) (MUSIC VIDEOS) 1080p - WEB-HD - AVC - DD5.1-DUS
De De Pyaar De (2019) (MUSIC VIDEOS) 1080p - WEB-HD - AVC - DD5.1-DUS
De De Pyaar De (2019) (MUSIC VIDEOS) 1080p - WEB-HD - AVC - DD5.1-DUS
De De Pyaar De (2019) (MUSIC VIDEOS) 1080p - WEB-HD - AVC - DD5.1-DUS
De De Pyaar De (2019) (MUSIC VIDEOS) 1080p - WEB-HD - AVC - DD5.1-DUS
De De Pyaar De (2019) (MUSIC VIDEOS) 1080p - WEB-HD - AVC - DD5.1-DUS
De De Pyaar De (2019) (MUSIC VIDEOS) 1080p - WEB-HD - AVC - DD5.1-DUS


FAST LINKS


https://www.heroupload.com/017755ae6da7dda2/01-Vaddi_Sharaban_[By-DusIcTv].mkv
https://www.heroupload.com/141a341f8ea50f04/02-Tu_Mila_To_Haina_[By-DusIcTv].mkv
https://www.heroupload.com/054f7eb30601226e/03-Chale_Aana_[By-DusIcTv].mkv
https://www.heroupload.com/a9e620e303f10b03/04-Mukhda_Vekh_Ke_[By-DusIcTv].mkv
https://www.heroupload.com/d1223d1961800b62/05-Dil_Royi_Jaaye_[By-DusIcTv].mkv
https://www.heroupload.com/2b464591b757c053/06-Hauli_Hauli_[By-DusIcTv].mkv



Теги: De

Dear visitor, you are browsing our website as Guest.
We strongly recommend you to register and login to view hidden contents.

Comments:

Add Comments