Set as default Homepage|Bookmark
 
 
» » Student of the Year 2 (2019) (MUSIC VIDEOS) 1080p - WEB-HD - AVC - DD5.1-DUS
Advertise

Student of the Year 2 (2019) (MUSIC VIDEOS) 1080p - WEB-HD - AVC - DD5.1-DUS

Author: wroser on 1-10-2019, 12:00
Student of the Year 2 (2019) (MUSIC VIDEOS) 1080p - WEB-HD - AVC - DD5.1-DUS




File size : 2.27 GB
Overall bit rate : 8 222 kb/s
Encoded date : UTC 2019-08-26 08:36:15
Writing application : mkvmerge v36.0.0 ('Is That Jazz?') 64-bit
Writing library : libebml v1.3.9 + libmatroska v1.5.2

Video
ID : 1
Format : AVC
Format/Info : Advanced Video Codec
Format profile : [email protected]
Format settings : CABAC / 4 Ref Frames
Format settings, CABAC : Yes
Format settings, Reference frames : 4 frames
Codec ID : V_MPEG4/ISO/AVC
Bit rate mode : Constant
Bit rate : 7 908 kb/s
Nominal bit rate : 10 000 kb/s
Width : 1 920 pixels
Height : 816 pixels
Display aspect ratio : 2.35:1
Frame rate mode : Constant
Frame rate : 24.000 FPS
Color space : YUV
Chroma subsampling : 4:2:0
Bit depth : 8 bits
Scan type : Progressive
Bits/(Pixel*Frame) : 0.210
Stream size : 66.0 MiB (92%)
Default : Yes
Forced : No
Color range : Limited
Color primaries : BT.709
Transfer characteristics : BT.709
Matrix coefficients : BT.709

Audio
ID : 2
Format : E-AC-3
Format/Info : Enhanced AC-3
Commercial name : Dolby Digital Plus
Codec ID : A_EAC3
Bit rate mode : Constant
Bit rate : 640 kb/s
Channel(s) : 6 channels
Channel layout : L R C LFE Ls Rs
Sampling rate : 48.0 kHz
Frame rate : 31.250 FPS (1536 SPF)
Compression mode : Lossy
Delay relative to video : 16 ms
Stream size : 5.34 MiB (7%)
Language : Hindi
Service kind : Complete Main
Default : Yes
Forced : No

Text
ID : 3
Format : UTF-8
Codec ID : S_TEXT/UTF8
Codec ID/Info : UTF-8 Plain Text
Bit rate : 25 b/s
Count of elements : 6
Stream size : 224 Bytes (0%)
Title : eng
Language : English
Default : No
Forced : No

Student of the Year 2 (2019) (MUSIC VIDEOS) 1080p - WEB-HD - AVC - DD5.1-DUS
Student of the Year 2 (2019) (MUSIC VIDEOS) 1080p - WEB-HD - AVC - DD5.1-DUS
Student of the Year 2 (2019) (MUSIC VIDEOS) 1080p - WEB-HD - AVC - DD5.1-DUS
Student of the Year 2 (2019) (MUSIC VIDEOS) 1080p - WEB-HD - AVC - DD5.1-DUS
Student of the Year 2 (2019) (MUSIC VIDEOS) 1080p - WEB-HD - AVC - DD5.1-DUS
Student of the Year 2 (2019) (MUSIC VIDEOS) 1080p - WEB-HD - AVC - DD5.1-DUS
Student of the Year 2 (2019) (MUSIC VIDEOS) 1080p - WEB-HD - AVC - DD5.1-DUS
Student of the Year 2 (2019) (MUSIC VIDEOS) 1080p - WEB-HD - AVC - DD5.1-DUS
Student of the Year 2 (2019) (MUSIC VIDEOS) 1080p - WEB-HD - AVC - DD5.1-DUS
Student of the Year 2 (2019) (MUSIC VIDEOS) 1080p - WEB-HD - AVC - DD5.1-DUS
Student of the Year 2 (2019) (MUSIC VIDEOS) 1080p - WEB-HD - AVC - DD5.1-DUS
Student of the Year 2 (2019) (MUSIC VIDEOS) 1080p - WEB-HD - AVC - DD5.1-DUS
Student of the Year 2 (2019) (MUSIC VIDEOS) 1080p - WEB-HD - AVC - DD5.1-DUS
Student of the Year 2 (2019) (MUSIC VIDEOS) 1080p - WEB-HD - AVC - DD5.1-DUS
Student of the Year 2 (2019) (MUSIC VIDEOS) 1080p - WEB-HD - AVC - DD5.1-DUS
Student of the Year 2 (2019) (MUSIC VIDEOS) 1080p - WEB-HD - AVC - DD5.1-DUS

FAST LINKS

https://www.heroupload.com/98ae1436948feecd/01-School_Wala_Love_(Student_Of_The_Year_2)_[By-DusIcTv].mkv
https://www.heroupload.com/231d65cfe163f8b7/02-Kukkad_Kamal_Da_(Student_Of_The_Year_2)_[By-DusIcTv].mkv
https://www.heroupload.com/4ff3d130a038b0cc/03-Amma_Dekh_Tera_Munda_Bigda_Jaaye_(Student_Of_The_Year_2)_[By-DusIcTv].mkv
https://www.heroupload.com/1b0a358ec2ac7ddb/04-Ek_Nayee_Subha_(Student_Of_The_Year_2)_[By-DusIcTv].mkv
https://www.heroupload.com/d6355ecfa433ece3/05-Dance_Music_1_(Student_Of_The_Year_2)_[By-DusIcTv].mkv
https://www.heroupload.com/5fc62993a5243a5b/06-Jatt_Ludhiyane_Da_(Student_Of_The_Year_2)_[By-DusIcTv].mkv
https://www.heroupload.com/115c43224adbadec/07-Dance_Music_2_(Student_Of_The_Year_2)_[By-DusIcTv].mkv
https://www.heroupload.com/f9b88a87c387dcd3/08-The_Jawaani_Song_(Student_Of_The_Year_2)_[By-DusIcTv].mkv
https://www.heroupload.com/31594b8a46e38ad5/09-Main_Bhi_Nahi_Soya_(Student_Of_The_Year_2)_[By-DusIcTv].mkv
https://www.heroupload.com/cc3999ef222d7606/10-Dance_Music_3_(Student_Of_The_Year_2)_[By-DusIcTv].mkv
https://www.heroupload.com/e3451f9ef442c14f/11-Fakira_(Student_Of_The_Year_2)_[By-DusIcTv].mkv
https://www.heroupload.com/de02e0f6394973f2/12-Game_Rehearsal_(Student_Of_The_Year_2)_[By-DusIcTv].mkv
https://www.heroupload.com/372e0268ffd234e4/13-The_Hook_Up_Song_End_Roll_(Student_Of_The_Year_2)_[By-DusIcTv].mkv




Теги: Student

Dear visitor, you are browsing our website as Guest.
We strongly recommend you to register and login to view hidden contents.

Comments:

Add Comments