Set as default Homepage|Bookmark
 
 
» » Welcome (2007) (MUSIC VIDEOS) 1080p Untouched WEB-HD AVC AAC-DUS
Advertise

Welcome (2007) (MUSIC VIDEOS) 1080p Untouched WEB-HD AVC AAC-DUS

Author: wroser on 26-09-2019, 11:38
Welcome (2007) (MUSIC VIDEOS) 1080p Untouched WEB-HD AVC AAC-DUS





Overall bit rate : 11.8 Mb/s
Encoded date : UTC 2019-09-07 11:32:26
Writing application : mkvmerge v36.0.0 ('Is That Jazz?') 32-bit
Writing library : libebml v1.3.9 + libmatroska v1.5.2

Video
ID : 1
Format : AVC
Format/Info : Advanced Video Codec
Format profile : [email protected]
Format settings : CABAC / 4 Ref Frames
Format settings, CABAC : Yes
Format settings, Reference frames : 4 frames
Codec ID : V_MPEG4/ISO/AVC
Bit rate : 11.6 Mb/s
Width : 1 920 pixels
Height : 816 pixels
Display aspect ratio : 2.35:1
Frame rate mode : Constant
Frame rate : 25.000 FPS
Color space : YUV
Chroma subsampling : 4:2:0
Bit depth : 8 bits
Scan type : Progressive
Bits/(Pixel*Frame) : 0.297
Stream size : 297 MiB (98%)
Default : Yes
Forced : No

Audio
ID : 2
Format : AAC LC
Format/Info : Advanced Audio Codec Low Complexity
Codec ID : A_AAC-2
Bit rate : 192 kb/s
Channel(s) : 2 channels
Channel layout : L R
Sampling rate : 48.0 kHz
Frame rate : 46.875 FPS (1024 SPF)
Compression mode : Lossy
Delay relative to video : 3 ms
Stream size : 4.90 MiB (2%)
Default : Yes
Forced : No


Welcome (2007) (MUSIC VIDEOS) 1080p Untouched WEB-HD AVC AAC-DUS Welcome (2007) (MUSIC VIDEOS) 1080p Untouched WEB-HD AVC AAC-DUS Welcome (2007) (MUSIC VIDEOS) 1080p Untouched WEB-HD AVC AAC-DUS Welcome (2007) (MUSIC VIDEOS) 1080p Untouched WEB-HD AVC AAC-DUS Welcome (2007) (MUSIC VIDEOS) 1080p Untouched WEB-HD AVC AAC-DUS Welcome (2007) (MUSIC VIDEOS) 1080p Untouched WEB-HD AVC AAC-DUS Welcome (2007) (MUSIC VIDEOS) 1080p Untouched WEB-HD AVC AAC-DUS Welcome (2007) (MUSIC VIDEOS) 1080p Untouched WEB-HD AVC AAC-DUS Welcome (2007) (MUSIC VIDEOS) 1080p Untouched WEB-HD AVC AAC-DUS Welcome (2007) (MUSIC VIDEOS) 1080p Untouched WEB-HD AVC AAC-DUS Welcome (2007) (MUSIC VIDEOS) 1080p Untouched WEB-HD AVC AAC-DUS Welcome (2007) (MUSIC VIDEOS) 1080p Untouched WEB-HD AVC AAC-DUS Welcome (2007) (MUSIC VIDEOS) 1080p Untouched WEB-HD AVC AAC-DUS Welcome (2007) (MUSIC VIDEOS) 1080p Untouched WEB-HD AVC AAC-DUS Welcome (2007) (MUSIC VIDEOS) 1080p Untouched WEB-HD AVC AAC-DUS Welcome (2007) (MUSIC VIDEOS) 1080p Untouched WEB-HD AVC AAC-DUS Welcome (2007) (MUSIC VIDEOS) 1080p Untouched WEB-HD AVC AAC-DUS Welcome (2007) (MUSIC VIDEOS) 1080p Untouched WEB-HD AVC AAC-DUS Welcome (2007) (MUSIC VIDEOS) 1080p Untouched WEB-HD AVC AAC-DUS Welcome (2007) (MUSIC VIDEOS) 1080p Untouched WEB-HD AVC AAC-DUS Welcome (2007) (MUSIC VIDEOS) 1080p Untouched WEB-HD AVC AAC-DUS Welcome (2007) (MUSIC VIDEOS) 1080p Untouched WEB-HD AVC AAC-DUS

SINGLE DIRECT FAST LINKS


https://www.heroupload.com/2fe8cdc8e15eebe9/01-Kola_Laka_Vellari_[By-DusIcTv].mkv
https://www.heroupload.com/8a658187f4f0956b/02-Honth_Rasiley_[By-DusIcTv].mkv
https://www.heroupload.com/81ab9f51317612f0/03-Uncha_Lamba_Kad_[By-DusIcTv].mkv
https://www.heroupload.com/8014e4cefa3714e0/04-Insha_Allah_[By-DusIcTv].mkv
https://www.heroupload.com/7aa8eca2811d7577/05-Kiya_Kiya_[By-DusIcTv].mkv
https://www.heroupload.com/c92efae0aab64169/06-Welcome_(Title_Track)_[By-DusIcTv].mkv




Теги: Welcome

Dear visitor, you are browsing our website as Guest.
We strongly recommend you to register and login to view hidden contents.

Comments:

Add Comments