Set as default Homepage|Bookmark
 
 
» » Uyare (2019) Malayalam - 720p - DVDRip - x264 - DD5.1 - Esubs-TMV
Advertise

Uyare (2019) Malayalam - 720p - DVDRip - x264 - DD5.1 - Esubs-TMV

Author: wroser on 9-08-2019, 15:51
Uyare (2019) Malayalam - 720p - DVDRip - x264 - DD5.1 - Esubs-TMV






Format                                   : Matroska
Format version                           : Version 4
File size                                : 1.41 GiB
Duration                                 : 2 h 4 min
Overall bit rate                         : 1 625 kb/s
Movie name                               : www.TamilMV.bid
Encoded date                             : UTC 2019-08-09 11:45:47
Writing application                      : mkvmerge v35.0.0 ('All The Love In The World') 64-bit
Writing library                          : libebml v1.3.9 + libmatroska v1.5.2

Video
ID                                       : 1
Format                                   : AVC
Format/Info                              : Advanced Video Codec
Format profile                           : [email protected]
Format settings                          : CABAC / 4 Ref Frames
Format settings, CABAC                   : Yes
Format settings, Reference frames        : 4 frames
Codec ID                                 : V_MPEG4/ISO/AVC
Duration                                 : 2 h 4 min
Bit rate                                 : 1 404 kb/s
Width                                    : 1 280 pixels
Height                                   : 544 pixels
Display aspect ratio                     : 2.35:1
Frame rate mode                          : Constant
Frame rate                               : 23.976 (24000/1001) FPS
Color space                              : YUV
Chroma subsampling                       : 4:2:0
Bit depth                                : 8 bits
Scan type                                : Progressive
Bits/(Pixel*Frame)                       : 0.084
Stream size                              : 1.22 GiB (86%)
Writing library                          : x264 core 155 r2901 7d0ff22
Encoding settings                        : cabac=1 / ref=1 / deblock=1:0:0 / analyse=0x3:0x113 / me=hex / subme=2 / psy=1 / psy_rd=1.00:0.00 / mixed_ref=0 / me_range=16 / chroma_me=1 / trellis=0 / 8x8dct=1 / cqm=0 / deadzone=21,11 / fast_pskip=1 / chroma_qp_offset=0 / threads=12 / lookahead_threads=4 / sliced_threads=0 / nr=0 / decimate=1 / interlaced=0 / bluray_compat=0 / constrained_intra=0 / bframes=3 / b_pyramid=2 / b_adapt=1 / b_bias=0 / direct=1 / weightb=1 / open_gop=0 / weightp=1 / keyint=240 / keyint_min=24 / scenecut=40 / intra_refresh=0 / rc_lookahead=10 / rc=abr / mbtree=1 / bitrate=1404 / ratetol=1.0 / qcomp=0.60 / qpmin=0 / qpmax=69 / qpstep=4 / vbv_maxrate=25000 / vbv_bufsize=25000 / nal_hrd=none / filler=0 / ip_ratio=1.40 / aq=1:1.00
Language                                 : Malayalam
Default                                  : Yes
Forced                                   : No
Color range                              : Limited
Color primaries                          : BT.601 NTSC
Transfer characteristics                 : BT.709
Matrix coefficients                      : BT.601

Audio
ID                                       : 2
Format                                   : E-AC-3
Format/Info                              : Enhanced AC-3
Commercial name                          : Dolby Digital Plus
Codec ID                                 : A_EAC3
Duration                                 : 2 h 4 min
Bit rate mode                            : Constant
Bit rate                                 : 224 kb/s
Channel(s)                               : 6 channels
Channel layout                           : L R C LFE Ls Rs
Sampling rate                            : 48.0 kHz
Frame rate                               : 31.250 FPS (1536 SPF)
Compression mode                         : Lossy
Stream size                              : 199 MiB (14%)
Language                                 : Malayalam
Service kind                             : Complete Main
Default                                  : Yes
Forced                                   : No

Text
ID                                       : 3
Format                                   : UTF-8
Codec ID                                 : S_TEXT/UTF8
Codec ID/Info                            : UTF-8 Plain Text
Duration                                 : 1 h 50 min
Bit rate                                 : 12 b/s
Count of elements                        : 275
Stream size                              : 9.80 KiB (0%)
Language                                 : English
Default                                  : Yes
Forced                                   : No



Uyare (2019) Malayalam - 720p - DVDRip - x264 - DD5.1 - Esubs-TMV
Uyare (2019) Malayalam - 720p - DVDRip - x264 - DD5.1 - Esubs-TMV
Uyare (2019) Malayalam - 720p - DVDRip - x264 - DD5.1 - Esubs-TMV
Uyare (2019) Malayalam - 720p - DVDRip - x264 - DD5.1 - Esubs-TMV
Uyare (2019) Malayalam - 720p - DVDRip - x264 - DD5.1 - Esubs-TMV
Uyare (2019) Malayalam - 720p - DVDRip - x264 - DD5.1 - Esubs-TMV
Uyare (2019) Malayalam - 720p - DVDRip - x264 - DD5.1 - Esubs-TMV


SINGLE DIRECT FAST LINKS


https://www.heroupload.com/516bba7e122cd85c/Uyare.2019.Malayalam.Org.DVDRip.720p.x264.DD5.1.ESub-TMV.mkv
https://www.heroupload.com/2b6c7e108ffad4a1/Uyare.2019.Malayalam.Org.DVDRip.720p.x264.DD5.1.ESub-TMV.srt





Buy Premium From My Links & Support Me

Теги: Uyare

Dear visitor, you are browsing our website as Guest.
We strongly recommend you to register and login to view hidden contents.

Comments:

Add Comments