Set as default Homepage|Bookmark
 
 
» » Unda (2019) Malayalam - 1080p - WEB-DL - AVC - DD5.1 - ESub-BWT
Advertise

Unda (2019) Malayalam - 1080p - WEB-DL - AVC - DD5.1 - ESub-BWT

Author: wroser on 1-08-2019, 21:44
Unda (2019) Malayalam - 1080p - WEB-DL - AVC - DD5.1 - ESub-BWT




Format                                   : Matroska
Format version                           : Version 4
File size                                : 8.16 GiB
Duration                                 : 2 h 8 min
Overall bit rate                         : 9 071 kb/s
Encoded date                             : UTC 2019-08-01 21:15:03
Writing application                      : mkvmerge v33.1.0 ('Primrose') 32-bit
Writing library                          : libebml v1.3.7 + libmatroska v1.5.0

Video
ID                                       : 1
Format                                   : AVC
Format/Info                              : Advanced Video Codec
Format profile                           : [email protected]
Format settings                          : CABAC / 4 Ref Frames
Format settings, CABAC                   : Yes
Format settings, Reference frames        : 4 frames
Codec ID                                 : V_MPEG4/ISO/AVC
Duration                                 : 2 h 8 min
Bit rate mode                            : Constant
Bit rate                                 : 8 429 kb/s
Nominal bit rate                         : 10 000 kb/s
Width                                    : 1 920 pixels
Height                                   : 816 pixels
Display aspect ratio                     : 2.35:1
Frame rate mode                          : Constant
Frame rate                               : 24.000 FPS
Color space                              : YUV
Chroma subsampling                       : 4:2:0
Bit depth                                : 8 bits
Scan type                                : Progressive
Bits/(Pixel*Frame)                       : 0.224
Stream size                              : 7.59 GiB (93%)
Language                                 : Malayalam
Default                                  : Yes
Forced                                   : No
Color range                              : Limited
Color primaries                          : BT.709
Transfer characteristics                 : BT.709
Matrix coefficients                      : BT.709

Audio
ID                                       : 2
Format                                   : E-AC-3
Format/Info                              : Enhanced AC-3
Commercial name                          : Dolby Digital Plus
Codec ID                                 : A_EAC3
Duration                                 : 2 h 8 min
Bit rate mode                            : Constant
Bit rate                                 : 640 kb/s
Channel(s)                               : 6 channels
Channel layout                           : L R C LFE Ls Rs
Sampling rate                            : 48.0 kHz
Frame rate                               : 31.250 FPS (1536 SPF)
Compression mode                         : Lossy
Stream size                              : 590 MiB (7%)
Language                                 : Malayalam
Service kind                             : Complete Main
Default                                  : Yes
Forced                                   : No

Text
ID                                       : 3
Format                                   : UTF-8
Codec ID                                 : S_TEXT/UTF8
Codec ID/Info                            : UTF-8 Plain Text
Duration                                 : 2 h 1 min
Bit rate                                 : 57 b/s
Count of elements                        : 1806
Stream size                              : 51.7 KiB (0%)
Language                                 : English
Default                                  : Yes
Forced                                   : No



Unda (2019) Malayalam - 1080p - WEB-DL - AVC - DD5.1 - ESub-BWT
Unda (2019) Malayalam - 1080p - WEB-DL - AVC - DD5.1 - ESub-BWT
Unda (2019) Malayalam - 1080p - WEB-DL - AVC - DD5.1 - ESub-BWT
Unda (2019) Malayalam - 1080p - WEB-DL - AVC - DD5.1 - ESub-BWTUnda (2019) Malayalam - 1080p - WEB-DL - AVC - DD5.1 - ESub-BWT
Unda (2019) Malayalam - 1080p - WEB-DL - AVC - DD5.1 - ESub-BWTUnda (2019) Malayalam - 1080p - WEB-DL - AVC - DD5.1 - ESub-BWT


SINGLE DIRECT FAST LINKS

https://www.heroupload.com/c9aada70e9beb613/Unda.2019.Malayalam.WEB-DL.1080p.AVC.DD5.1.ESub-BWT.mkv


1GB LINKS



https://www.heroupload.com/0e50855418399ce6/Unda.2019.Malayalam.WEB-DL.1080p.AVC.DD5.1.ESub-BWT.part01.rar
https://www.heroupload.com/0b071483897c73d9/Unda.2019.Malayalam.WEB-DL.1080p.AVC.DD5.1.ESub-BWT.part02.rar
https://www.heroupload.com/97537fc92cfc6475/Unda.2019.Malayalam.WEB-DL.1080p.AVC.DD5.1.ESub-BWT.part03.rar
https://www.heroupload.com/1c796d8644e2e41f/Unda.2019.Malayalam.WEB-DL.1080p.AVC.DD5.1.ESub-BWT.part04.rar
https://www.heroupload.com/f1d9a42e58092946/Unda.2019.Malayalam.WEB-DL.1080p.AVC.DD5.1.ESub-BWT.part05.rar
https://www.heroupload.com/6ea76498aadfda97/Unda.2019.Malayalam.WEB-DL.1080p.AVC.DD5.1.ESub-BWT.part06.rar
https://www.heroupload.com/e06aaa48f8b809ff/Unda.2019.Malayalam.WEB-DL.1080p.AVC.DD5.1.ESub-BWT.part07.rar
https://www.heroupload.com/a7fdcb287d8d01d9/Unda.2019.Malayalam.WEB-DL.1080p.AVC.DD5.1.ESub-BWT.part08.rar
https://www.heroupload.com/951e74e61e03df34/Unda.2019.Malayalam.WEB-DL.1080p.AVC.DD5.1.ESub-BWT.part09.rar


Buy Premium From My Links & Support Me

Теги: Unda

Dear visitor, you are browsing our website as Guest.
We strongly recommend you to register and login to view hidden contents.

Comments:

Add Comments