Set as default Homepage|Bookmark
 
 
» » Unda (2019) Malayalam - 720p - HDRip - x264 - DD5.1 - ESub-BWT
Advertise

Unda (2019) Malayalam - 720p - HDRip - x264 - DD5.1 - ESub-BWT

Author: wroser on 1-08-2019, 21:42
Unda (2019) Malayalam - 720p - HDRip - x264 - DD5.1 - ESub-BWT





Format                                   : Matroska
Format version                           : Version 4
File size                                : 1.50 GiB
Duration                                 : 2 h 8 min
Overall bit rate                         : 1 669 kb/s
Encoded date                             : UTC 2019-08-01 21:13:52
Writing application                      : mkvmerge v33.1.0 ('Primrose') 32-bit
Writing library                          : libebml v1.3.7 + libmatroska v1.5.0

Video
ID                                       : 1
Format                                   : AVC
Format/Info                              : Advanced Video Codec
Format profile                           : [email protected]
Format settings                          : CABAC / 5 Ref Frames
Format settings, CABAC                   : Yes
Format settings, Reference frames        : 5 frames
Codec ID                                 : V_MPEG4/ISO/AVC
Duration                                 : 2 h 8 min
Bit rate                                 : 1 475 kb/s
Width                                    : 1 280 pixels
Height                                   : 544 pixels
Display aspect ratio                     : 2.35:1
Original display aspect ratio            : 2.35:1
Frame rate mode                          : Constant
Frame rate                               : 24.000 FPS
Color space                              : YUV
Chroma subsampling                       : 4:2:0
Bit depth                                : 8 bits
Scan type                                : Progressive
Bits/(Pixel*Frame)                       : 0.088
Stream size                              : 1.33 GiB (88%)
Language                                 : Malayalam
Default                                  : Yes
Forced                                   : No
Color range                              : Limited
Color primaries                          : BT.709
Transfer characteristics                 : BT.709
Matrix coefficients                      : BT.709

Audio
ID                                       : 2
Format                                   : E-AC-3
Format/Info                              : Enhanced AC-3
Commercial name                          : Dolby Digital Plus
Codec ID                                 : A_EAC3
Duration                                 : 2 h 8 min
Bit rate mode                            : Constant
Bit rate                                 : 192 kb/s
Channel(s)                               : 6 channels
Channel layout                           : L R C LFE Ls Rs
Sampling rate                            : 48.0 kHz
Frame rate                               : 31.250 FPS (1536 SPF)
Compression mode                         : Lossy
Stream size                              : 177 MiB (12%)
Language                                 : Malayalam
Service kind                             : Complete Main
Default                                  : Yes
Forced                                   : No

Text
ID                                       : 3
Format                                   : UTF-8
Codec ID                                 : S_TEXT/UTF8
Codec ID/Info                            : UTF-8 Plain Text
Duration                                 : 2 h 1 min
Bit rate                                 : 57 b/s
Count of elements                        : 1806
Stream size                              : 51.7 KiB (0%)
Language                                 : English
Default                                  : Yes
Forced                                   : No



Unda (2019) Malayalam - 720p - HDRip - x264 - DD5.1 - ESub-BWT
Unda (2019) Malayalam - 720p - HDRip - x264 - DD5.1 - ESub-BWT
Unda (2019) Malayalam - 720p - HDRip - x264 - DD5.1 - ESub-BWT
Unda (2019) Malayalam - 720p - HDRip - x264 - DD5.1 - ESub-BWTUnda (2019) Malayalam - 720p - HDRip - x264 - DD5.1 - ESub-BWT
Unda (2019) Malayalam - 720p - HDRip - x264 - DD5.1 - ESub-BWTUnda (2019) Malayalam - 720p - HDRip - x264 - DD5.1 - ESub-BWT

SINGLE DIRECT FAST LINKS



https://www.heroupload.com/7983178d04dd05c0/Unda.2019.Malayalam.HDRip.720p.x264.DD5.1.AAC.ESub-BWT.mkv



Buy Premium From My Links & Support Me

Теги: Unda

Dear visitor, you are browsing our website as Guest.
We strongly recommend you to register and login to view hidden contents.

Comments:

Add Comments